<?xml version="1.0" standalone="no"?>
<!DOCTYPE svg PUBLIC "-//W3C//DTD SVG 1.1//EN" "http://www.w3.org/Graphics/SVG/1.1/DTD/svg11.dtd" >
<svg xmlns="http://www.w3.org/2000/svg" xmlns:xlink="http://www.w3.org/1999/xlink" version="1.1">
<metadata>
Created by FontForge 20200511 at Tue Dec 22 14:01:16 2020
 By convertio
Copyright 2020 The Anton Project Authors (https://github.com/googlefonts/AntonFont.git)
</metadata>
<defs>
<font id="Anton-Regular" horiz-adv-x="0" >
  <font-face 
    font-family="Anton"
    font-weight="400"
    font-stretch="normal"
    units-per-em="2048"
    panose-1="0 0 0 0 0 0 0 0 0 0"
    ascent="1638"
    descent="-410"
    x-height="1500"
    cap-height="1760"
    bbox="-619 -667 2989 2874"
    underline-thickness="102"
    underline-position="-358"
    unicode-range="U+000D-FB02"
  />
<missing-glyph horiz-adv-x="1022" 
d="M78 0v1760h866v-1760h-866zM511 1091l170 539h-340zM218 162l227 718l-227 718v-1436zM804 162v1436l-226 -718zM511 669l-170 -539h340z" />
    <glyph glyph-name="f_f" unicode="ff" horiz-adv-x="1148" 
d="M105 0v1161h-65v273h65v102q0 242 242 242q114 0 184 -29v-221q-25 5 -33 5q-31 0 -38 -22.5t-7 -57.5v-19h78v-277h-71v-1157h-355zM679 0v1161h-65v273h65v102q0 242 242 242q114 0 184 -29v-221q-25 5 -33 5q-31 0 -38 -22.5t-7 -57.5v-19h78v-277h-71v-1157h-355z
" />
    <glyph glyph-name="f_f_i" unicode="ffi" horiz-adv-x="1646" 
d="M105 0v1161h-65v273h65v102q0 242 242 242q114 0 184 -29v-221q-25 5 -33 5q-31 0 -38 -22.5t-7 -57.5v-19h78v-277h-71v-1157h-355zM679 0v1161h-65v273h65v102q0 242 242 242q114 0 184 -29v-221q-25 5 -33 5q-31 0 -38 -22.5t-7 -57.5v-19h78v-277h-71v-1157h-355z
M1218 1592v298h358v-298h-358zM1218 0v1500h358v-1500h-358z" />
    <glyph glyph-name="f_f_l" unicode="ffl" horiz-adv-x="1656" 
d="M105 0v1161h-65v273h65v102q0 242 242 242q114 0 184 -29v-221q-25 5 -33 5q-31 0 -38 -22.5t-7 -57.5v-19h78v-277h-71v-1157h-355zM679 0v1161h-65v273h65v102q0 242 242 242q114 0 184 -29v-221q-25 5 -33 5q-31 0 -38 -22.5t-7 -57.5v-19h78v-277h-71v-1157h-355z
M1220 0v1760h364v-1760h-364z" />
    <glyph glyph-name="fi" unicode="fi" horiz-adv-x="1072" 
d="M105 0v1161h-65v273h65v102q0 242 242 242q114 0 184 -29v-221q-25 5 -33 5q-31 0 -38 -22.5t-7 -57.5v-19h78v-277h-71v-1157h-355zM644 1592v298h358v-298h-358zM644 0v1500h358v-1500h-358z" />
    <glyph glyph-name="fl" unicode="fl" horiz-adv-x="1082" 
d="M105 0v1161h-65v273h65v102q0 242 242 242q114 0 184 -29v-221q-25 5 -33 5q-31 0 -38 -22.5t-7 -57.5v-19h78v-277h-71v-1157h-355zM646 0v1760h364v-1760h-364z" />
    <glyph glyph-name=".notdef" horiz-adv-x="1022" 
d="M78 0v1760h866v-1760h-866zM511 1091l170 539h-340zM218 162l227 718l-227 718v-1436zM804 162v1436l-226 -718zM511 669l-170 -539h340z" />
    <glyph glyph-name="CR" unicode="&#xd;" horiz-adv-x="480" 
 />
    <glyph glyph-name="NULL" 
 />
    <glyph glyph-name="NULL" 
 />
    <glyph glyph-name="uni00A0" unicode="&#xa0;" horiz-adv-x="480" 
 />
    <glyph glyph-name="A" unicode="A" horiz-adv-x="994" 
d="M30 0l170 1760h597l167 -1760h-333l-25 284h-212l-22 -284h-342zM419 565h160l-77 895h-16z" />
    <glyph glyph-name="AE" unicode="&#xc6;" horiz-adv-x="1311" 
d="M-44 0l321 1760h972v-309h-286v-402h272v-299h-272v-439h309v-311h-649v479h-207l-79 -479h-381zM462 769h156v692h-57z" />
    <glyph glyph-name="AEacute" unicode="&#x1fc;" horiz-adv-x="1311" 
d="M-44 0l321 1760h972v-309h-286v-402h272v-299h-272v-439h309v-311h-649v479h-207l-79 -479h-381zM462 769h156v692h-57zM558 1813v223l475 218v-347z" />
    <glyph glyph-name="uni01E2" unicode="&#x1e2;" horiz-adv-x="1311" 
d="M-44 0l321 1760h972v-309h-286v-402h272v-299h-272v-439h309v-311h-649v479h-207l-79 -479h-381zM462 769h156v692h-57zM471 1879v153h650v-153h-650z" />
    <glyph glyph-name="Aacute" unicode="&#xc1;" horiz-adv-x="994" 
d="M30 0l170 1760h597l167 -1760h-333l-25 284h-212l-22 -284h-342zM419 565h160l-77 895h-16zM258 1813v223l475 218v-347z" />
    <glyph glyph-name="Abreve" unicode="&#x102;" horiz-adv-x="994" 
d="M30 0l170 1760h597l167 -1760h-333l-25 284h-212l-22 -284h-342zM419 565h160l-77 895h-16zM499 1852q-175 0 -283.5 74t-108.5 237q0 21 3 42h256q0 -57 29 -86.5t106 -29.5t106 29.5t29 86.5h256q1 -10 1.5 -20t0.5 -15q0 -167 -107.5 -242.5t-287.5 -75.5z" />
    <glyph glyph-name="uni1EAE" unicode="&#x1eae;" horiz-adv-x="994" 
d="M30 0l170 1760h597l167 -1760h-333l-25 284h-212l-22 -284h-342zM419 565h160l-77 895h-16zM331 2161v105l374 188v-229zM491 1830q-98 0 -172 35t-114.5 90t-40.5 114q0 21 3 42h190q0 -62 29 -94t105 -32q77 0 105.5 32t28.5 94h201q2 -24 2 -35q0 -62 -40.5 -118.5
t-116 -92t-180.5 -35.5z" />
    <glyph glyph-name="uni1EB6" unicode="&#x1eb6;" horiz-adv-x="994" 
d="M30 0l170 1760h597l167 -1760h-333l-25 284h-212l-22 -284h-342zM419 565h160l-77 895h-16zM495 1852q-175 0 -283.5 67t-108.5 214q0 21 3 42h256q0 -62 29 -94t106 -32t106 32t29 94h256q2 -24 2 -35q0 -151 -107.5 -219.5t-287.5 -68.5zM318 -397v298h358v-298h-358z
" />
    <glyph glyph-name="uni1EB0" unicode="&#x1eb0;" horiz-adv-x="994" 
d="M30 0l170 1760h597l167 -1760h-333l-25 284h-212l-22 -284h-342zM419 565h160l-77 895h-16zM705 2161l-374 64v229l374 -188v-105zM491 1830q-98 0 -172 35t-114.5 90t-40.5 114q0 21 3 42h190q0 -62 29 -94t105 -32q77 0 105.5 32t28.5 94h201q2 -22 2 -35
q0 -62 -40.5 -118.5t-116 -92t-180.5 -35.5z" />
    <glyph glyph-name="uni1EB2" unicode="&#x1eb2;" horiz-adv-x="994" 
d="M30 0l170 1760h597l167 -1760h-333l-25 284h-212l-22 -284h-342zM419 565h160l-77 895h-16zM502 2129l-66 77q34 13 54.5 31.5t20.5 49.5q0 59 -63 59q-28 0 -56 -10v112q57 21 114 21q77 0 121 -39t44 -109q0 -79 -48.5 -124t-120.5 -68zM491 1830q-98 0 -172 35
t-114.5 90t-40.5 114q0 21 3 42h190q0 -62 29 -94t105 -32q77 0 105.5 32t28.5 94h201q1 -10 1.5 -20t0.5 -15q0 -62 -40.5 -118.5t-116 -92t-180.5 -35.5z" />
    <glyph glyph-name="uni1EB4" unicode="&#x1eb4;" horiz-adv-x="994" 
d="M30 0l170 1760h597l167 -1760h-333l-25 284h-212l-22 -284h-342zM419 565h160l-77 895h-16zM634 2174q-45 0 -84.5 17t-77.5 34t-77 17q-24 0 -45 -11t-39 -40l-111 58q26 65 62 111.5t111 46.5q47 0 86 -17t76 -34t77 -17q50 0 84 56l125 -40q-28 -70 -65 -125.5
t-122 -55.5zM491 1830q-98 0 -172 35t-114.5 90t-40.5 114q0 21 3 42h190q0 -62 29 -94t105 -32q77 0 105.5 32t28.5 94h201q1 -10 1.5 -20t0.5 -15q0 -62 -40.5 -118.5t-116 -92t-180.5 -35.5z" />
    <glyph glyph-name="uni01CD" unicode="&#x1cd;" horiz-adv-x="994" 
d="M30 0l170 1760h597l167 -1760h-333l-25 284h-212l-22 -284h-342zM419 565h160l-77 895h-16zM292 1851l-241 403h359l86 -285l86 285h359l-241 -403h-408z" />
    <glyph glyph-name="Acircumflex" unicode="&#xc2;" horiz-adv-x="994" 
d="M30 0l170 1760h597l167 -1760h-333l-25 284h-212l-22 -284h-342zM419 565h160l-77 895h-16zM51 1851l241 403h408l241 -403h-359l-86 285l-86 -285h-359z" />
    <glyph glyph-name="uni1EA4" unicode="&#x1ea4;" horiz-adv-x="994" 
d="M30 0l170 1760h597l167 -1760h-333l-25 284h-212l-22 -284h-342zM419 565h160l-77 895h-16zM785 2000l114 204h307l-188 -204h-233zM112 1839l237 254h294l237 -254h-285l-99 135l-99 -135h-285z" />
    <glyph glyph-name="uni1EAC" unicode="&#x1eac;" horiz-adv-x="994" 
d="M30 0l170 1760h597l167 -1760h-333l-25 284h-212l-22 -284h-342zM419 565h160l-77 895h-16zM318 -397v298h358v-298h-358zM51 1861l241 333h408l241 -333h-359l-86 215l-86 -215h-359z" />
    <glyph glyph-name="uni1EA6" unicode="&#x1ea6;" horiz-adv-x="994" 
d="M30 0l170 1760h597l167 -1760h-333l-25 284h-212l-22 -284h-342zM419 565h160l-77 895h-16zM852 2000l-188 204h307l114 -204h-233zM112 1839l237 254h294l237 -254h-285l-99 135l-99 -135h-285z" />
    <glyph glyph-name="uni1EA8" unicode="&#x1ea8;" horiz-adv-x="994" 
d="M30 0l170 1760h597l167 -1760h-333l-25 284h-212l-22 -284h-342zM419 565h160l-77 895h-16zM866 1959l-66 77q34 13 54.5 31.5t20.5 49.5q0 59 -63 59q-28 0 -56 -10v112q57 21 114 21q77 0 121 -39t44 -109q0 -79 -48.5 -124t-120.5 -68zM112 1839l237 254h294l237 -254
h-285l-99 135l-99 -135h-285z" />
    <glyph glyph-name="uni1EAA" unicode="&#x1eaa;" horiz-adv-x="994" 
d="M30 0l170 1760h597l167 -1760h-333l-25 284h-212l-22 -284h-342zM419 565h160l-77 895h-16zM616 2142q-45 0 -84.5 17t-77 34t-77.5 17q-24 0 -45 -11t-39 -40l-111 58q26 65 62 111.5t111 46.5q47 0 86 -17t76 -34t77 -17q50 0 84 56l125 -40q-28 -70 -65 -125.5
t-122 -55.5zM112 1839l237 254h294l237 -254h-285l-99 135l-99 -135h-285z" />
    <glyph glyph-name="uni0200" unicode="&#x200;" horiz-adv-x="994" 
d="M30 0l170 1760h597l167 -1760h-333l-25 284h-212l-22 -284h-342zM419 565h160l-77 895h-16zM299 1846l-289 429l234 108l221 -479zM601 1846l-248 429l230 108l184 -479z" />
    <glyph glyph-name="Adieresis" unicode="&#xc4;" horiz-adv-x="994" 
d="M30 0l170 1760h597l167 -1760h-333l-25 284h-212l-22 -284h-342zM419 565h160l-77 895h-16zM552 1859v298h358v-298h-358zM68 1859v298h358v-298h-358z" />
    <glyph glyph-name="uni01DE" unicode="&#x1de;" horiz-adv-x="994" 
d="M30 0l170 1760h597l167 -1760h-333l-25 284h-212l-22 -284h-342zM419 565h160l-77 895h-16zM559 1859v248h358v-248h-358zM75 1859v248h358v-248h-358zM171 2216v153h650v-153h-650z" />
    <glyph glyph-name="uni0226" unicode="&#x226;" horiz-adv-x="994" 
d="M30 0l170 1760h597l167 -1760h-333l-25 284h-212l-22 -284h-342zM419 565h160l-77 895h-16zM317 1852v298h358v-298h-358z" />
    <glyph glyph-name="uni1EA0" unicode="&#x1ea0;" horiz-adv-x="994" 
d="M30 0l170 1760h597l167 -1760h-333l-25 284h-212l-22 -284h-342zM419 565h160l-77 895h-16zM318 -397v298h358v-298h-358z" />
    <glyph glyph-name="uni01E0" unicode="&#x1e0;" horiz-adv-x="994" 
d="M30 0l170 1760h597l167 -1760h-333l-25 284h-212l-22 -284h-342zM419 565h160l-77 895h-16zM317 1852v258h358v-258h-358zM171 2198v153h650v-153h-650z" />
    <glyph glyph-name="Agrave" unicode="&#xc0;" horiz-adv-x="994" 
d="M30 0l170 1760h597l167 -1760h-333l-25 284h-212l-22 -284h-342zM419 565h160l-77 895h-16zM733 1813l-475 94v347l475 -218v-223z" />
    <glyph glyph-name="uni1EA2" unicode="&#x1ea2;" horiz-adv-x="994" 
d="M30 0l170 1760h597l167 -1760h-333l-25 284h-212l-22 -284h-342zM419 565h160l-77 895h-16zM467 1837l-106 124q54 20 87 50t33 80q0 95 -101 95q-47 0 -90 -16v180q88 33 183 33q125 0 195.5 -62.5t70.5 -175.5q0 -127 -78 -199.5t-194 -108.5z" />
    <glyph glyph-name="uni0202" unicode="&#x202;" horiz-adv-x="994" 
d="M30 0l170 1760h597l167 -1760h-333l-25 284h-212l-22 -284h-342zM419 565h160l-77 895h-16zM125 1868q-3 20 -3 41q0 163 98.5 237t273.5 74q180 0 277.5 -75.5t97.5 -242.5q0 -5 -0.5 -14.5t-1.5 -19.5h-236q0 68 -38 101t-97 33q-58 0 -96.5 -33t-38.5 -101h-236z" />
    <glyph glyph-name="uni2C6D" unicode="&#x2c6d;" horiz-adv-x="1069" 
d="M363 -16q-129 0 -193 61.5t-85 170.5t-21 251v827q0 142 21 250.5t85 170t193 61.5q86 0 137 -43t81 -129v156h350v-1321q0 -71 30.5 -102t97.5 -31v-316q-172 0 -269 39.5t-148 159.5q-33 -114 -108 -159.5t-171 -45.5zM499 278q47 0 64.5 44t17.5 109v899
q0 65 -17.5 108.5t-64.5 43.5q-51 0 -68 -40.5t-17 -111.5v-899q0 -71 17 -112t68 -41z" />
    <glyph glyph-name="Amacron" unicode="&#x100;" horiz-adv-x="994" 
d="M30 0l170 1760h597l167 -1760h-333l-25 284h-212l-22 -284h-342zM419 565h160l-77 895h-16zM172 1879v153h650v-153h-650z" />
    <glyph glyph-name="Aogonek" unicode="&#x104;" horiz-adv-x="994" 
d="M30 0l170 1760h597l167 -1760h-333l-25 284h-212l-22 -284h-342zM419 565h160l-77 895h-16zM775 -631q-95 0 -174 36t-126.5 103.5t-47.5 161.5q0 182 264 330h211q-56 -58 -108 -127t-52 -152q0 -112 115 -112q49 0 116 23v-223q-95 -40 -198 -40z" />
    <glyph glyph-name="Aring" unicode="&#xc5;" horiz-adv-x="994" 
d="M30 0l170 1760h597l167 -1760h-333l-25 284h-212l-22 -284h-342zM419 565h160l-77 895h-16zM495 1840q-160 0 -256.5 89.5t-96.5 248.5q0 158 96.5 248t256.5 90q161 0 257.5 -90t96.5 -248t-96.5 -248t-257.5 -90zM496 2021q67 0 104.5 46t37.5 111t-37.5 111t-104.5 46
t-104.5 -46t-37.5 -111t37.5 -111t104.5 -46z" />
    <glyph glyph-name="Aringacute" unicode="&#x1fa;" horiz-adv-x="994" 
d="M30 0l170 1760h597l167 -1760h-333l-25 284h-212l-22 -284h-342zM419 565h160l-77 895h-16zM496 1840q-160 0 -256.5 84t-96.5 234q0 149 96.5 233.5t256.5 84.5q161 0 257.5 -84.5t96.5 -233.5q0 -148 -96.5 -233t-257.5 -85zM497 2021q67 0 104.5 40t37.5 97t-37.5 97
t-104.5 40t-104.5 -40t-37.5 -97t37.5 -97t104.5 -40zM259 2513v193l475 168v-287z" />
    <glyph glyph-name="uni1E00" unicode="&#x1e00;" horiz-adv-x="994" 
d="M30 0l170 1760h597l167 -1760h-333l-25 284h-212l-22 -284h-342zM419 565h160l-77 895h-16zM496 -613q-160 0 -256.5 84t-96.5 234q0 149 96.5 233.5t256.5 84.5q161 0 257.5 -84.5t96.5 -233.5q0 -148 -96.5 -233t-257.5 -85zM497 -432q67 0 104.5 40t37.5 97t-37.5 97
t-104.5 40t-104.5 -40t-37.5 -97t37.5 -97t104.5 -40z" />
    <glyph glyph-name="uni023A" unicode="&#x23a;" horiz-adv-x="994" 
d="M30 0l170 1760h407l62 240h140l-62 -240h50l167 -1760h-333l-25 284h-212l-22 -284h-83l-48 -186h-140l48 186h-119zM419 565h160l-77 895h-16z" />
    <glyph glyph-name="Atilde" unicode="&#xc3;" horiz-adv-x="994" 
d="M30 0l170 1760h597l167 -1760h-333l-25 284h-212l-22 -284h-342zM419 565h160l-77 895h-16zM661 1871q-74 0 -135.5 23t-111.5 45.5t-91 22.5q-26 0 -49 -15t-43 -53l-148 78q25 61 54.5 111.5t75.5 81t117 30.5t128.5 -21t105 -42t86.5 -21q27 0 50 17t43 58l166 -54
q-24 -67 -53 -127t-74.5 -97t-120.5 -37z" />
    <glyph glyph-name="B" unicode="B" horiz-adv-x="980" 
d="M78 0v1760h477q192 0 279.5 -93.5t87.5 -308.5v-77q0 -124 -44.5 -201t-135.5 -101q119 -30 159.5 -140.5t40.5 -269.5q0 -171 -32 -299t-116 -199t-239 -71h-477zM422 1097h72q49 0 63 38t14 91v177q0 85 -75 85h-74v-391zM457 310q137 0 137 130v220q0 75 -22.5 118.5
t-84.5 43.5h-65v-510q22 -2 35 -2z" />
    <glyph glyph-name="uni1E02" unicode="&#x1e02;" horiz-adv-x="980" 
d="M78 0v1760h477q192 0 279.5 -93.5t87.5 -308.5v-77q0 -124 -44.5 -201t-135.5 -101q119 -30 159.5 -140.5t40.5 -269.5q0 -171 -32 -299t-116 -199t-239 -71h-477zM422 1097h72q49 0 63 38t14 91v177q0 85 -75 85h-74v-391zM457 310q137 0 137 130v220q0 75 -22.5 118.5
t-84.5 43.5h-65v-510q22 -2 35 -2zM272 1852v298h358v-298h-358z" />
    <glyph glyph-name="uni1E04" unicode="&#x1e04;" horiz-adv-x="980" 
d="M78 0v1760h477q192 0 279.5 -93.5t87.5 -308.5v-77q0 -124 -44.5 -201t-135.5 -101q119 -30 159.5 -140.5t40.5 -269.5q0 -171 -32 -299t-116 -199t-239 -71h-477zM422 1097h72q49 0 63 38t14 91v177q0 85 -75 85h-74v-391zM457 310q137 0 137 130v220q0 75 -22.5 118.5
t-84.5 43.5h-65v-510q22 -2 35 -2zM272 -417v298h358v-298h-358z" />
    <glyph glyph-name="uniA7B4" unicode="&#xa7b4;" horiz-adv-x="980" 
d="M78 -186v1946h477q192 0 279.5 -93.5t87.5 -308.5v-77q0 -124 -44.5 -201t-135.5 -101q119 -30 159.5 -140.5t40.5 -269.5q0 -171 -32 -299t-116 -199t-239 -71h-133v-186h-344zM422 1097h72q49 0 63 38t14 91v177q0 85 -75 85h-74v-391zM457 310q137 0 137 130v220
q0 75 -22.5 118.5t-84.5 43.5h-65v-510q22 -2 35 -2z" />
    <glyph glyph-name="uni0181" unicode="&#x181;" horiz-adv-x="1328" 
d="M426 0v1488q-114 0 -114 -152v-84h-307v60q0 131 46.5 232t140 158.5t234.5 57.5h477q192 0 279.5 -93.5t87.5 -308.5v-77q0 -124 -44.5 -201t-135.5 -101q119 -30 159.5 -140.5t40.5 -269.5q0 -171 -32 -299t-116 -199t-239 -71h-477zM770 1097h72q49 0 63 38t14 91v177
q0 85 -75 85h-74v-391zM805 310q137 0 137 130v220q0 75 -22.5 118.5t-84.5 43.5h-65v-510q22 -2 35 -2z" />
    <glyph glyph-name="uni1E06" unicode="&#x1e06;" horiz-adv-x="980" 
d="M78 0v1760h477q192 0 279.5 -93.5t87.5 -308.5v-77q0 -124 -44.5 -201t-135.5 -101q119 -30 159.5 -140.5t40.5 -269.5q0 -171 -32 -299t-116 -199t-239 -71h-477zM422 1097h72q49 0 63 38t14 91v177q0 85 -75 85h-74v-391zM457 310q137 0 137 130v220q0 75 -22.5 118.5
t-84.5 43.5h-65v-510q22 -2 35 -2zM126 -272v153h650v-153h-650z" />
    <glyph glyph-name="uni0243" unicode="&#x243;" horiz-adv-x="980" 
d="M78 0v453h-78v232h78v1075h477q192 0 279.5 -93.5t87.5 -308.5v-77q0 -124 -44.5 -201t-135.5 -101q119 -30 159.5 -140.5t40.5 -269.5q0 -171 -32 -299t-116 -199t-239 -71h-477zM422 1097h72q49 0 63 38t14 91v177q0 85 -75 85h-74v-391zM457 310q137 0 137 130v220
q0 75 -22.5 118.5t-84.5 43.5h-65v-137h94v-232h-94v-141q22 -2 35 -2z" />
    <glyph glyph-name="C" unicode="C" horiz-adv-x="971" 
d="M488 -16q-191 0 -307.5 119t-116.5 333v812q0 256 101.5 392t330.5 136q125 0 222.5 -46t153.5 -137.5t56 -230.5v-304h-350v260q0 79 -20 106.5t-62 27.5q-49 0 -66 -35.5t-17 -94.5v-881q0 -73 21.5 -103t61.5 -30q45 0 63.5 37t18.5 96v317h354v-333
q0 -232 -117 -336.5t-327 -104.5z" />
    <glyph glyph-name="Cacute" unicode="&#x106;" horiz-adv-x="971" 
d="M488 -16q-191 0 -307.5 119t-116.5 333v812q0 256 101.5 392t330.5 136q125 0 222.5 -46t153.5 -137.5t56 -230.5v-304h-350v260q0 79 -20 106.5t-62 27.5q-49 0 -66 -35.5t-17 -94.5v-881q0 -73 21.5 -103t61.5 -30q45 0 63.5 37t18.5 96v317h354v-333
q0 -232 -117 -336.5t-327 -104.5zM258 1813v223l475 218v-347z" />
    <glyph glyph-name="Ccaron" unicode="&#x10c;" horiz-adv-x="971" 
d="M488 -16q-191 0 -307.5 119t-116.5 333v812q0 256 101.5 392t330.5 136q125 0 222.5 -46t153.5 -137.5t56 -230.5v-304h-350v260q0 79 -20 106.5t-62 27.5q-49 0 -66 -35.5t-17 -94.5v-881q0 -73 21.5 -103t61.5 -30q45 0 63.5 37t18.5 96v317h354v-333
q0 -232 -117 -336.5t-327 -104.5zM292 1851l-241 403h359l86 -285l86 285h359l-241 -403h-408z" />
    <glyph glyph-name="Ccedilla" unicode="&#xc7;" horiz-adv-x="971" 
d="M488 -16q-191 0 -307.5 119t-116.5 333v812q0 256 101.5 392t330.5 136q125 0 222.5 -46t153.5 -137.5t56 -230.5v-304h-350v260q0 79 -20 106.5t-62 27.5q-49 0 -66 -35.5t-17 -94.5v-881q0 -73 21.5 -103t61.5 -30q45 0 63.5 37t18.5 96v317h354v-333
q0 -232 -117 -336.5t-327 -104.5zM463 -631q-103 0 -198 40v223q31 -10 61 -16.5t57 -6.5q50 0 83.5 26.5t33.5 91.5q0 56 -27.5 128t-76.5 145h161q97 -85 150.5 -189.5t53.5 -197.5q0 -103 -71 -173.5t-227 -70.5z" />
    <glyph glyph-name="uni1E08" unicode="&#x1e08;" horiz-adv-x="971" 
d="M488 -16q-191 0 -307.5 119t-116.5 333v812q0 256 101.5 392t330.5 136q125 0 222.5 -46t153.5 -137.5t56 -230.5v-304h-350v260q0 79 -20 106.5t-62 27.5q-49 0 -66 -35.5t-17 -94.5v-881q0 -73 21.5 -103t61.5 -30q45 0 63.5 37t18.5 96v317h354v-333
q0 -232 -117 -336.5t-327 -104.5zM463 -631q-103 0 -198 40v223q31 -10 61 -16.5t57 -6.5q50 0 83.5 26.5t33.5 91.5q0 56 -27.5 128t-76.5 145h161q97 -85 150.5 -189.5t53.5 -197.5q0 -103 -71 -173.5t-227 -70.5zM259 1813v223l475 218v-347z" />
    <glyph glyph-name="Ccircumflex" unicode="&#x108;" horiz-adv-x="971" 
d="M488 -16q-191 0 -307.5 119t-116.5 333v812q0 256 101.5 392t330.5 136q125 0 222.5 -46t153.5 -137.5t56 -230.5v-304h-350v260q0 79 -20 106.5t-62 27.5q-49 0 -66 -35.5t-17 -94.5v-881q0 -73 21.5 -103t61.5 -30q45 0 63.5 37t18.5 96v317h354v-333
q0 -232 -117 -336.5t-327 -104.5zM51 1851l241 403h408l241 -403h-359l-86 285l-86 -285h-359z" />
    <glyph glyph-name="Cdotaccent" unicode="&#x10a;" horiz-adv-x="971" 
d="M488 -16q-191 0 -307.5 119t-116.5 333v812q0 256 101.5 392t330.5 136q125 0 222.5 -46t153.5 -137.5t56 -230.5v-304h-350v260q0 79 -20 106.5t-62 27.5q-49 0 -66 -35.5t-17 -94.5v-881q0 -73 21.5 -103t61.5 -30q45 0 63.5 37t18.5 96v317h354v-333
q0 -232 -117 -336.5t-327 -104.5zM317 1852v298h358v-298h-358z" />
    <glyph glyph-name="uniA7B3" unicode="&#xa7b3;" horiz-adv-x="1013" 
d="M987 -202q-210 0 -306.5 80.5t-121.5 255.5l-62 438l-110 -758h-350l184 1030l-78 498q-12 77 -30 111.5t-86 34.5v286q210 0 307.5 -80t120.5 -256l46 -347l78 669h338l-148 -916l110 -613q14 -77 35 -112t73 -35v-286z" />
    <glyph glyph-name="uni0187" unicode="&#x187;" horiz-adv-x="1054" 
d="M488 -16q-191 0 -307.5 119t-116.5 333v812q0 256 100.5 392t321.5 136q110 0 191 -53q41 126 141.5 201.5t245.5 75.5v-316q-69 0 -102.5 -32.5t-33.5 -119.5v-474h-350v260q0 79 -20 106.5t-62 27.5q-49 0 -66 -35.5t-17 -94.5v-881q0 -73 21.5 -103t61.5 -30
q45 0 63.5 37t18.5 96v317h354v-333q0 -232 -117 -336.5t-327 -104.5z" />
    <glyph glyph-name="uni023B" unicode="&#x23b;" horiz-adv-x="971" 
d="M161 -186l65 249q-77 57 -119.5 151.5t-42.5 221.5v812q0 256 101.5 392t330.5 136q92 0 169 -24l64 248h140l-80 -313q65 -51 102 -132.5t37 -192.5v-304h-350v260q0 79 -20 106.5t-62 27.5q-49 0 -66 -35.5t-17 -94.5v-881q0 -73 21.5 -103t61.5 -30q45 0 63.5 37
t18.5 96v317h354v-333q0 -232 -117 -336.5t-327 -104.5q-74 0 -138 18l-49 -188h-140z" />
    <glyph glyph-name="D" unicode="D" horiz-adv-x="1010" 
d="M78 0v1760h484q190 0 286 -105.5t96 -308.5v-824q0 -250 -87.5 -386t-306.5 -136h-472zM432 311h61q97 0 97 94v908q0 88 -23.5 113.5t-95.5 25.5h-39v-1141z" />
    <glyph glyph-name="uni01F1" unicode="&#x1f1;" horiz-adv-x="1850" 
d="M78 0v1760h484q190 0 286 -105.5t96 -308.5v-824q0 -250 -87.5 -386t-306.5 -136h-472zM432 311h61q97 0 97 94v908q0 88 -23.5 113.5t-95.5 25.5h-39v-1141zM1042 0v320l403 1116h-364v324h735v-308l-410 -1128h393v-324h-757z" />
    <glyph glyph-name="uni01C4" unicode="&#x1c4;" horiz-adv-x="1850" 
d="M78 0v1760h484q190 0 286 -105.5t96 -308.5v-824q0 -250 -87.5 -386t-306.5 -136h-472zM432 311h61q97 0 97 94v908q0 88 -23.5 113.5t-95.5 25.5h-39v-1141zM1042 0v320l403 1116h-364v324h735v-308l-410 -1128h393v-324h-757zM1245 1851l-241 403h359l86 -285l86 285
h359l-241 -403h-408z" />
    <glyph glyph-name="uni0189" unicode="&#x189;" horiz-adv-x="1010" 
d="M78 0v804h-75v232h75v724h484q190 0 286 -105.5t96 -308.5v-824q0 -250 -87.5 -386t-306.5 -136h-472zM432 311h61q97 0 97 94v908q0 88 -23.5 113.5t-95.5 25.5h-39v-416h87v-232h-87v-493z" />
    <glyph glyph-name="Dcaron" unicode="&#x10e;" horiz-adv-x="1010" 
d="M78 0v1760h484q190 0 286 -105.5t96 -308.5v-824q0 -250 -87.5 -386t-306.5 -136h-472zM432 311h61q97 0 97 94v908q0 88 -23.5 113.5t-95.5 25.5h-39v-1141zM300 1851l-241 403h359l86 -285l86 285h359l-241 -403h-408z" />
    <glyph glyph-name="uni1E10" unicode="&#x1e10;" horiz-adv-x="1010" 
d="M78 0v1760h484q190 0 286 -105.5t96 -308.5v-824q0 -250 -87.5 -386t-306.5 -136h-472zM432 311h61q97 0 97 94v908q0 88 -23.5 113.5t-95.5 25.5h-39v-1141zM366 -643l66 236h-127v298h374v-289l-102 -245h-211z" />
    <glyph glyph-name="uni1E12" unicode="&#x1e12;" horiz-adv-x="1010" 
d="M78 0v1760h484q190 0 286 -105.5t96 -308.5v-824q0 -250 -87.5 -386t-306.5 -136h-472zM432 311h61q97 0 97 94v908q0 88 -23.5 113.5t-95.5 25.5h-39v-1141zM60 -512l241 403h408l241 -403h-359l-86 285l-86 -285h-359z" />
    <glyph glyph-name="Dcroat" unicode="&#x110;" horiz-adv-x="1010" 
d="M78 0v804h-75v232h75v724h484q190 0 286 -105.5t96 -308.5v-824q0 -250 -87.5 -386t-306.5 -136h-472zM432 311h61q97 0 97 94v908q0 88 -23.5 113.5t-95.5 25.5h-39v-416h87v-232h-87v-493z" />
    <glyph glyph-name="uni1E0A" unicode="&#x1e0a;" horiz-adv-x="1010" 
d="M78 0v1760h484q190 0 286 -105.5t96 -308.5v-824q0 -250 -87.5 -386t-306.5 -136h-472zM432 311h61q97 0 97 94v908q0 88 -23.5 113.5t-95.5 25.5h-39v-1141zM325 1852v298h358v-298h-358z" />
    <glyph glyph-name="uni1E0C" unicode="&#x1e0c;" horiz-adv-x="1010" 
d="M78 0v1760h484q190 0 286 -105.5t96 -308.5v-824q0 -250 -87.5 -386t-306.5 -136h-472zM432 311h61q97 0 97 94v908q0 88 -23.5 113.5t-95.5 25.5h-39v-1141zM326 -417v298h358v-298h-358z" />
    <glyph glyph-name="uni0394" unicode="&#x394;" horiz-adv-x="1103" 
d="M30 0l269 1760h497l277 -1760h-1043zM359 225h309l-137 1335h-16z" />
    <glyph glyph-name="uni018A" unicode="&#x18a;" horiz-adv-x="1359" 
d="M427 0v1452q-115 0 -115 -140v-60h-307v60q0 197 105 322.5t317 125.5h484q190 0 286 -105.5t96 -308.5v-824q0 -250 -87.5 -386t-306.5 -136h-472zM781 311h61q97 0 97 94v908q0 88 -23.5 113.5t-95.5 25.5h-39v-1141z" />
    <glyph glyph-name="uni1E0E" unicode="&#x1e0e;" horiz-adv-x="1010" 
d="M78 0v1760h484q190 0 286 -105.5t96 -308.5v-824q0 -250 -87.5 -386t-306.5 -136h-472zM432 311h61q97 0 97 94v908q0 88 -23.5 113.5t-95.5 25.5h-39v-1141zM180 -272v153h650v-153h-650z" />
    <glyph glyph-name="uni01F2" unicode="&#x1f2;" horiz-adv-x="1800" 
d="M78 0v1760h484q190 0 286 -105.5t96 -308.5v-824q0 -250 -87.5 -386t-306.5 -136h-472zM432 311h61q97 0 97 94v908q0 88 -23.5 113.5t-95.5 25.5h-39v-1141zM1038 0v219l374 997h-356v284h727v-244l-353 -988h356v-268h-748z" />
    <glyph glyph-name="uni01C5" unicode="&#x1c5;" horiz-adv-x="1800" 
d="M78 0v1760h484q190 0 286 -105.5t96 -308.5v-824q0 -250 -87.5 -386t-306.5 -136h-472zM432 311h61q97 0 97 94v908q0 88 -23.5 113.5t-95.5 25.5h-39v-1141zM1038 0v219l374 997h-356v284h727v-244l-353 -988h356v-268h-748zM1242 1591l-241 403h359l86 -285l86 285h359
l-241 -403h-408z" />
    <glyph glyph-name="E" unicode="E" horiz-adv-x="843" 
d="M78 0v1760h704v-340h-346v-343h332v-331h-332v-403h369v-343h-727z" />
    <glyph glyph-name="Eacute" unicode="&#xc9;" horiz-adv-x="843" 
d="M78 0v1760h704v-340h-346v-343h332v-331h-332v-403h369v-343h-727zM206 1813v223l475 218v-347z" />
    <glyph glyph-name="Ebreve" unicode="&#x114;" horiz-adv-x="843" 
d="M78 0v1760h704v-340h-346v-343h332v-331h-332v-403h369v-343h-727zM447 1852q-175 0 -283.5 74t-108.5 237q0 21 3 42h256q0 -57 29 -86.5t106 -29.5t106 29.5t29 86.5h256q1 -10 1.5 -20t0.5 -15q0 -167 -107.5 -242.5t-287.5 -75.5z" />
    <glyph glyph-name="Ecaron" unicode="&#x11a;" horiz-adv-x="843" 
d="M78 0v1760h704v-340h-346v-343h332v-331h-332v-403h369v-343h-727zM240 1851l-241 403h359l86 -285l86 285h359l-241 -403h-408z" />
    <glyph glyph-name="uni0228" unicode="&#x228;" horiz-adv-x="843" 
d="M78 0v1760h704v-340h-346v-343h332v-331h-332v-403h369v-343h-727zM405 -631q-103 0 -198 40v223q31 -10 61 -16.5t57 -6.5q50 0 83.5 26.5t33.5 91.5q0 56 -27.5 128t-76.5 145h161q97 -85 150.5 -189.5t53.5 -197.5q0 -103 -71 -173.5t-227 -70.5z" />
    <glyph glyph-name="uni1E1C" unicode="&#x1e1c;" horiz-adv-x="843" 
d="M78 0v1760h704v-340h-346v-343h332v-331h-332v-403h369v-343h-727zM405 -631q-103 0 -198 40v223q31 -10 61 -16.5t57 -6.5q50 0 83.5 26.5t33.5 91.5q0 56 -27.5 128t-76.5 145h161q97 -85 150.5 -189.5t53.5 -197.5q0 -103 -71 -173.5t-227 -70.5zM434 1852
q-175 0 -283.5 74t-108.5 237q0 21 3 42h256q0 -57 29 -86.5t106 -29.5t106 29.5t29 86.5h256q1 -10 1.5 -20t0.5 -15q0 -167 -107.5 -242.5t-287.5 -75.5z" />
    <glyph glyph-name="Ecircumflex" unicode="&#xca;" horiz-adv-x="843" 
d="M78 0v1760h704v-340h-346v-343h332v-331h-332v-403h369v-343h-727zM-1 1851l241 403h408l241 -403h-359l-86 285l-86 -285h-359z" />
    <glyph glyph-name="uni1EBE" unicode="&#x1ebe;" horiz-adv-x="843" 
d="M78 0v1760h704v-340h-346v-343h332v-331h-332v-403h369v-343h-727zM724 2000l114 204h307l-188 -204h-233zM51 1839l237 254h294l237 -254h-285l-99 135l-99 -135h-285z" />
    <glyph glyph-name="uni1E18" unicode="&#x1e18;" horiz-adv-x="843" 
d="M78 0v1760h704v-340h-346v-343h332v-331h-332v-403h369v-343h-727zM-3 -512l241 403h408l241 -403h-359l-86 285l-86 -285h-359z" />
    <glyph glyph-name="uni1EC6" unicode="&#x1ec6;" horiz-adv-x="843" 
d="M78 0v1760h704v-340h-346v-343h332v-331h-332v-403h369v-343h-727zM263 -417v298h358v-298h-358zM-10 1861l241 333h408l241 -333h-359l-86 215l-86 -215h-359z" />
    <glyph glyph-name="uni1EC0" unicode="&#x1ec0;" horiz-adv-x="843" 
d="M78 0v1760h704v-340h-346v-343h332v-331h-332v-403h369v-343h-727zM791 2000l-188 204h307l114 -204h-233zM51 1839l237 254h294l237 -254h-285l-99 135l-99 -135h-285z" />
    <glyph glyph-name="uni1EC2" unicode="&#x1ec2;" horiz-adv-x="843" 
d="M78 0v1760h704v-340h-346v-343h332v-331h-332v-403h369v-343h-727zM805 1959l-66 77q34 13 54.5 31.5t20.5 49.5q0 59 -63 59q-28 0 -56 -10v112q57 21 114 21q77 0 121 -39t44 -109q0 -79 -48.5 -124t-120.5 -68zM51 1839l237 254h294l237 -254h-285l-99 135l-99 -135
h-285z" />
    <glyph glyph-name="uni1EC4" unicode="&#x1ec4;" horiz-adv-x="843" 
d="M78 0v1760h704v-340h-346v-343h332v-331h-332v-403h369v-343h-727zM555 2142q-45 0 -84.5 17t-77 34t-77.5 17q-24 0 -45 -11t-39 -40l-111 58q26 65 62 111.5t111 46.5q47 0 86 -17t76 -34t77 -17q50 0 84 56l125 -40q-28 -70 -65 -125.5t-122 -55.5zM51 1839l237 254
h294l237 -254h-285l-99 135l-99 -135h-285z" />
    <glyph glyph-name="uni0204" unicode="&#x204;" horiz-adv-x="843" 
d="M78 0v1760h704v-340h-346v-343h332v-331h-332v-403h369v-343h-727zM247 1846l-289 429l234 108l221 -479zM549 1846l-248 429l230 108l184 -479z" />
    <glyph glyph-name="Edieresis" unicode="&#xcb;" horiz-adv-x="843" 
d="M78 0v1760h704v-340h-346v-343h332v-331h-332v-403h369v-343h-727zM500 1859v298h358v-298h-358zM16 1859v298h358v-298h-358z" />
    <glyph glyph-name="Edotaccent" unicode="&#x116;" horiz-adv-x="843" 
d="M78 0v1760h704v-340h-346v-343h332v-331h-332v-403h369v-343h-727zM265 1852v298h358v-298h-358z" />
    <glyph glyph-name="uni1EB8" unicode="&#x1eb8;" horiz-adv-x="843" 
d="M78 0v1760h704v-340h-346v-343h332v-331h-332v-403h369v-343h-727zM263 -417v298h358v-298h-358z" />
    <glyph glyph-name="Egrave" unicode="&#xc8;" horiz-adv-x="843" 
d="M78 0v1760h704v-340h-346v-343h332v-331h-332v-403h369v-343h-727zM681 1813l-475 94v347l475 -218v-223z" />
    <glyph glyph-name="uni1EBA" unicode="&#x1eba;" horiz-adv-x="843" 
d="M78 0v1760h704v-340h-346v-343h332v-331h-332v-403h369v-343h-727zM406 1837l-106 124q54 20 87 50t33 80q0 95 -101 95q-47 0 -90 -16v180q88 33 183 33q125 0 195.5 -62.5t70.5 -175.5q0 -127 -78 -199.5t-194 -108.5z" />
    <glyph glyph-name="uni0206" unicode="&#x206;" horiz-adv-x="843" 
d="M78 0v1760h704v-340h-346v-343h332v-331h-332v-403h369v-343h-727zM73 1868q-3 20 -3 41q0 163 98.5 237t273.5 74q180 0 277.5 -75.5t97.5 -242.5q0 -5 -0.5 -14.5t-1.5 -19.5h-236q0 68 -38 101t-97 33q-58 0 -96.5 -33t-38.5 -101h-236z" />
    <glyph glyph-name="Emacron" unicode="&#x112;" horiz-adv-x="843" 
d="M78 0v1760h704v-340h-346v-343h332v-331h-332v-403h369v-343h-727zM96 1879v153h650v-153h-650z" />
    <glyph glyph-name="uni1E16" unicode="&#x1e16;" horiz-adv-x="843" 
d="M78 0v1760h704v-340h-346v-343h332v-331h-332v-403h369v-343h-727zM110 1819v153h650v-153h-650zM204 2020v193l475 168v-287z" />
    <glyph glyph-name="uni1E14" unicode="&#x1e14;" horiz-adv-x="843" 
d="M78 0v1760h704v-340h-346v-343h332v-331h-332v-403h369v-343h-727zM110 1819v153h650v-153h-650zM679 2019l-475 74v287l475 -168v-193z" />
    <glyph glyph-name="Eng" unicode="&#x14a;" horiz-adv-x="1006" 
d="M447 -488v302q130 0 130 155v136l-155 775v-880h-344v1760h362l162 -843v843h340v-1768q0 -238 -129.5 -359t-365.5 -121z" />
    <glyph glyph-name="Eogonek" unicode="&#x118;" horiz-adv-x="843" 
d="M78 0v1760h704v-340h-346v-343h332v-331h-332v-403h369v-343h-727zM462 -631q-95 0 -174 36t-126.5 103.5t-47.5 161.5q0 182 264 330h211q-56 -58 -108 -127t-52 -152q0 -112 115 -112q49 0 116 23v-223q-95 -40 -198 -40z" />
    <glyph glyph-name="uni0190" unicode="&#x190;" horiz-adv-x="1012" 
d="M516 -20q-256 0 -366.5 143t-110.5 407q0 110 11 189t47 134.5t111 91.5q-94 34 -129.5 121t-35.5 229q0 468 450 468q233 0 345 -113t112 -355v-62h-364v53q0 63 -12 108.5t-71 45.5q-98 0 -98 -149q0 -100 54 -144t139 -44h64v-316h-104q-88 0 -119 -67t-31 -158v-32
q0 -56 4.5 -107.5t25.5 -84t68 -32.5q65 0 79.5 48.5t14.5 118.5v185h361v-184q0 -248 -106 -371t-339 -123z" />
    <glyph glyph-name="uni018E" unicode="&#x18e;" horiz-adv-x="843" 
d="M765 0h-727v343h369v403h-332v331h332v343h-346v340h704v-1760z" />
    <glyph glyph-name="uni01A9" unicode="&#x1a9;" horiz-adv-x="836" 
d="M62 0v268l307 614l-307 573v305h717v-340h-341l264 -494v-76l-253 -507h346v-343h-733z" />
    <glyph glyph-name="uni0246" unicode="&#x246;" horiz-adv-x="843" 
d="M78 0v1760h529l62 240h140l-62 -240h35v-340h-346v-343h332v-331h-332v-403h369v-343h-516l-48 -186h-140l48 186h-71z" />
    <glyph glyph-name="Eth" unicode="&#xd0;" horiz-adv-x="1010" 
d="M78 0v804h-75v232h75v724h484q190 0 286 -105.5t96 -308.5v-824q0 -250 -87.5 -386t-306.5 -136h-472zM432 311h61q97 0 97 94v908q0 88 -23.5 113.5t-95.5 25.5h-39v-416h87v-232h-87v-493z" />
    <glyph glyph-name="uni1EBC" unicode="&#x1ebc;" horiz-adv-x="843" 
d="M78 0v1760h704v-340h-346v-343h332v-331h-332v-403h369v-343h-727zM609 1871q-77 0 -136 23t-107.5 45.5t-94.5 22.5q-26 0 -49 -15t-43 -53l-148 78q25 61 54.5 111.5t75.5 81t117 30.5q74 0 131 -21t103.5 -42t85.5 -21q27 0 50 17t43 58l166 -54q-24 -67 -53 -127
t-74.5 -97t-120.5 -37z" />
    <glyph glyph-name="uni1E1A" unicode="&#x1e1a;" horiz-adv-x="843" 
d="M78 0v1760h704v-340h-346v-343h332v-331h-332v-403h369v-343h-727zM607 -435q-74 0 -135.5 23t-111.5 45.5t-91 22.5q-26 0 -49 -15t-43 -53l-148 78q25 61 54.5 111.5t75.5 81t117 30.5t128.5 -21t105 -42t86.5 -21q27 0 50 17t43 58l166 -54q-24 -67 -53 -127
t-74.5 -97t-120.5 -37z" />
    <glyph glyph-name="uni01B7" unicode="&#x1b7;" horiz-adv-x="1012" 
d="M486 -14q-231 0 -337 121.5t-106 371.5v179h359v-179q0 -80 20.5 -124.5t81.5 -44.5q44 0 62.5 31t22 82.5t3.5 112.5v43q0 224 -147 224h-116v255l237 362h-478v340h871v-310l-262 -400q139 -52 201.5 -183t62.5 -331q0 -271 -113 -410.5t-362 -139.5z" />
    <glyph glyph-name="uni01EE" unicode="&#x1ee;" horiz-adv-x="1012" 
d="M486 -14q-231 0 -337 121.5t-106 371.5v179h359v-179q0 -80 20.5 -124.5t81.5 -44.5q44 0 62.5 31t22 82.5t3.5 112.5v43q0 224 -147 224h-116v255l237 362h-478v340h871v-310l-262 -400q139 -52 201.5 -183t62.5 -331q0 -271 -113 -410.5t-362 -139.5zM81 2194h359
l86 -215l86 215h359l-241 -333h-408z" />
    <glyph glyph-name="uni01B8" unicode="&#x1b8;" horiz-adv-x="1012" 
d="M526 -14q-249 0 -362 139.5t-113 410.5q0 200 62.5 331t201.5 183l-262 400v310h871v-340h-478l237 -362v-255h-116q-147 0 -147 -224v-43q0 -61 3.5 -112.5t22 -82.5t62.5 -31q62 0 82 44.5t20 124.5v179h359v-179q0 -250 -106 -371.5t-337 -121.5z" />
    <glyph glyph-name="F" unicode="F" horiz-adv-x="817" 
d="M78 0v1760h704v-343h-350v-280h332v-339h-332v-798h-354z" />
    <glyph glyph-name="uni1E1E" unicode="&#x1e1e;" horiz-adv-x="817" 
d="M78 0v1760h704v-343h-350v-280h332v-339h-332v-798h-354zM273 1852v298h358v-298h-358z" />
    <glyph glyph-name="uni0191" unicode="&#x191;" horiz-adv-x="817" 
d="M-22 -196v316q53 0 76.5 31t23.5 101v1508h704v-343h-350v-280h332v-339h-332v-546q0 -131 -56 -232t-158 -158.5t-240 -57.5z" />
    <glyph glyph-name="G" unicode="G" horiz-adv-x="993" 
d="M441 -16q-377 0 -377 540v759q0 493 432 493q178 0 273 -71.5t131 -208.5t36 -334h-344v156q0 57 -15.5 95.5t-64.5 38.5q-61 0 -80.5 -41t-19.5 -90v-853q0 -71 18.5 -115.5t72.5 -44.5q56 0 74.5 44.5t18.5 117.5v251h-94v304h430v-1025h-141l-60 148
q-92 -164 -290 -164z" />
    <glyph glyph-name="uni01F4" unicode="&#x1f4;" horiz-adv-x="993" 
d="M441 -16q-377 0 -377 540v759q0 493 432 493q178 0 273 -71.5t131 -208.5t36 -334h-344v156q0 57 -15.5 95.5t-64.5 38.5q-61 0 -80.5 -41t-19.5 -90v-853q0 -71 18.5 -115.5t72.5 -44.5q56 0 74.5 44.5t18.5 117.5v251h-94v304h430v-1025h-141l-60 148
q-92 -164 -290 -164zM257 1813v223l475 218v-347z" />
    <glyph glyph-name="uni0194" unicode="&#x194;" horiz-adv-x="961" 
d="M480 -196q-122 0 -207 50t-129.5 137.5t-44.5 197.5q0 96 30 212t72 237l72 208l-250 915h338l119 -579l119 579h338l-248 -906l81 -217q45 -120 68 -236.5t23 -212.5q0 -110 -44.5 -197.5t-129.5 -137.5t-207 -50zM480 102q37 0 55.5 26.5t18.5 64.5q0 70 -18 138
t-56 175q-38 -107 -56 -175t-18 -138q0 -38 18.5 -64.5t55.5 -26.5z" />
    <glyph glyph-name="Gbreve" unicode="&#x11e;" horiz-adv-x="993" 
d="M441 -16q-377 0 -377 540v759q0 493 432 493q178 0 273 -71.5t131 -208.5t36 -334h-344v156q0 57 -15.5 95.5t-64.5 38.5q-61 0 -80.5 -41t-19.5 -90v-853q0 -71 18.5 -115.5t72.5 -44.5q56 0 74.5 44.5t18.5 117.5v251h-94v304h430v-1025h-141l-60 148
q-92 -164 -290 -164zM498 1852q-175 0 -283.5 74t-108.5 237q0 21 3 42h256q0 -57 29 -86.5t106 -29.5t106 29.5t29 86.5h256q1 -10 1.5 -20t0.5 -15q0 -167 -107.5 -242.5t-287.5 -75.5z" />
    <glyph glyph-name="Gcaron" unicode="&#x1e6;" horiz-adv-x="993" 
d="M441 -16q-377 0 -377 540v759q0 493 432 493q178 0 273 -71.5t131 -208.5t36 -334h-344v156q0 57 -15.5 95.5t-64.5 38.5q-61 0 -80.5 -41t-19.5 -90v-853q0 -71 18.5 -115.5t72.5 -44.5q56 0 74.5 44.5t18.5 117.5v251h-94v304h430v-1025h-141l-60 148
q-92 -164 -290 -164zM291 1851l-241 403h359l86 -285l86 285h359l-241 -403h-408z" />
    <glyph glyph-name="Gcircumflex" unicode="&#x11c;" horiz-adv-x="993" 
d="M441 -16q-377 0 -377 540v759q0 493 432 493q178 0 273 -71.5t131 -208.5t36 -334h-344v156q0 57 -15.5 95.5t-64.5 38.5q-61 0 -80.5 -41t-19.5 -90v-853q0 -71 18.5 -115.5t72.5 -44.5q56 0 74.5 44.5t18.5 117.5v251h-94v304h430v-1025h-141l-60 148
q-92 -164 -290 -164zM50 1851l241 403h408l241 -403h-359l-86 285l-86 -285h-359z" />
    <glyph glyph-name="uni0122" unicode="&#x122;" horiz-adv-x="993" 
d="M441 -16q-377 0 -377 540v759q0 493 432 493q178 0 273 -71.5t131 -208.5t36 -334h-344v156q0 57 -15.5 95.5t-64.5 38.5q-61 0 -80.5 -41t-19.5 -90v-853q0 -71 18.5 -115.5t72.5 -44.5q56 0 74.5 44.5t18.5 117.5v251h-94v304h430v-1025h-141l-60 148
q-92 -164 -290 -164zM366 -643l66 236h-127v298h374v-289l-102 -245h-211z" />
    <glyph glyph-name="Gdotaccent" unicode="&#x120;" horiz-adv-x="993" 
d="M441 -16q-377 0 -377 540v759q0 493 432 493q178 0 273 -71.5t131 -208.5t36 -334h-344v156q0 57 -15.5 95.5t-64.5 38.5q-61 0 -80.5 -41t-19.5 -90v-853q0 -71 18.5 -115.5t72.5 -44.5q56 0 74.5 44.5t18.5 117.5v251h-94v304h430v-1025h-141l-60 148
q-92 -164 -290 -164zM316 1852v298h358v-298h-358z" />
    <glyph glyph-name="uni1E9E" unicode="&#x1e9e;" horiz-adv-x="1019" 
d="M58 0v1403q0 188 112.5 281t320.5 93q149 0 259.5 -39t183.5 -91v-243l-129 -372q98 -44 131 -165t33 -329q0 -182 -34 -301.5t-118.5 -178t-234.5 -58.5h-104v281q143 0 143 118v277q0 81 -32.5 114t-114.5 33v220l143 408q-49 19 -103 19q-106 0 -106 -112v-1358h-350z
" />
    <glyph glyph-name="uni0193" unicode="&#x193;" horiz-adv-x="1054" 
d="M441 -16q-377 0 -377 540v759q0 244 103 368.5t289 124.5q134 0 220 -59q40 129 140.5 206t247.5 77v-316q-69 0 -102.5 -32.5t-33.5 -119.5v-370h-336v156q0 57 -15.5 95.5t-64.5 38.5q-61 0 -80.5 -41t-19.5 -90v-853q0 -71 18.5 -115.5t72.5 -44.5q56 0 74.5 44.5
t18.5 117.5v251h-94v304h430v-1025h-141l-60 148q-92 -164 -290 -164z" />
    <glyph glyph-name="uni0241" unicode="&#x241;" horiz-adv-x="1008" 
d="M287 0v871q84 0 143.5 13t97 55t55.5 127t18 228q0 65 -16.5 114t-76.5 49q-43 0 -63 -27.5t-25.5 -70t-5.5 -88.5v-146h-366v254q0 202 128.5 299.5t331.5 97.5q178 0 280.5 -64t146 -186.5t43.5 -299.5q0 -173 -41.5 -309t-121.5 -214t-195 -78v-625h-333z" />
    <glyph glyph-name="uni1E20" unicode="&#x1e20;" horiz-adv-x="993" 
d="M441 -16q-377 0 -377 540v759q0 493 432 493q178 0 273 -71.5t131 -208.5t36 -334h-344v156q0 57 -15.5 95.5t-64.5 38.5q-61 0 -80.5 -41t-19.5 -90v-853q0 -71 18.5 -115.5t72.5 -44.5q56 0 74.5 44.5t18.5 117.5v251h-94v304h430v-1025h-141l-60 148
q-92 -164 -290 -164zM170 1879v153h650v-153h-650z" />
    <glyph glyph-name="uni01E4" unicode="&#x1e4;" horiz-adv-x="993" 
d="M441 -16q-377 0 -377 540v759q0 493 432 493q178 0 273 -71.5t131 -208.5t36 -334h-344v156q0 57 -15.5 95.5t-64.5 38.5q-61 0 -80.5 -41t-19.5 -90v-853q0 -71 18.5 -115.5t72.5 -44.5q46 0 66 31t25 84h-95v232h97v66h-94v304h430v-370h83v-232h-83v-423h-141l-60 148
q-92 -164 -290 -164z" />
    <glyph glyph-name="H" unicode="H" horiz-adv-x="1022" 
d="M78 0v1760h350v-629h166v629h350v-1760h-350v798h-166v-798h-350z" />
    <glyph glyph-name="Hbar" unicode="&#x126;" horiz-adv-x="1041" 
d="M96 0v1342h-106v220h106v198h350v-198h166v198h350v-198h89v-220h-89v-1342h-350v798h-166v-798h-350zM446 1131h166v211h-166v-211z" />
    <glyph glyph-name="uni1E2A" unicode="&#x1e2a;" horiz-adv-x="1022" 
d="M78 0v1760h350v-629h166v629h350v-1760h-350v798h-166v-798h-350zM509 -416q-175 0 -283.5 74t-108.5 237q0 22 3 41h256q0 -56 29 -85.5t106 -29.5t106 29.5t29 85.5h256q2 -24 2 -34q0 -167 -107.5 -242.5t-287.5 -75.5z" />
    <glyph glyph-name="uni021E" unicode="&#x21e;" horiz-adv-x="1022" 
d="M78 0v1760h350v-629h166v629h350v-1760h-350v798h-166v-798h-350zM307 1851l-241 403h359l86 -285l86 285h359l-241 -403h-408z" />
    <glyph glyph-name="uni1E28" unicode="&#x1e28;" horiz-adv-x="1022" 
d="M78 0v1760h350v-629h166v629h350v-1760h-350v798h-166v-798h-350zM236 -631q-103 0 -198 40v223q31 -10 61 -16.5t57 -6.5q50 0 83.5 26.5t33.5 91.5q0 56 -27.5 128t-76.5 145h161q97 -85 150.5 -189.5t53.5 -197.5q0 -103 -71 -173.5t-227 -70.5z" />
    <glyph glyph-name="Hcircumflex" unicode="&#x124;" horiz-adv-x="1022" 
d="M78 0v1760h350v-629h166v629h350v-1760h-350v798h-166v-798h-350zM66 1851l241 403h408l241 -403h-359l-86 285l-86 -285h-359z" />
    <glyph glyph-name="uni1E26" unicode="&#x1e26;" horiz-adv-x="1022" 
d="M78 0v1760h350v-629h166v629h350v-1760h-350v798h-166v-798h-350zM567 1859v298h358v-298h-358zM83 1859v298h358v-298h-358z" />
    <glyph glyph-name="uni1E22" unicode="&#x1e22;" horiz-adv-x="1022" 
d="M78 0v1760h350v-629h166v629h350v-1760h-350v798h-166v-798h-350zM332 1852v298h358v-298h-358z" />
    <glyph glyph-name="uni1E24" unicode="&#x1e24;" horiz-adv-x="1022" 
d="M78 0v1760h350v-629h166v629h350v-1760h-350v798h-166v-798h-350zM331 -417v298h358v-298h-358z" />
    <glyph glyph-name="uniA726" unicode="&#xa726;" horiz-adv-x="1022" 
d="M514 -196v316q38 0 59 23.5t21 108.5v546h-166v-798h-350v1760h350v-629h166v629h350v-1528q0 -211 -119.5 -319.5t-310.5 -108.5z" />
    <glyph glyph-name="uniA7AA" unicode="&#xa7aa;" horiz-adv-x="1371" 
d="M427 0v1464q-59 0 -87 -36t-28 -116v-60h-307v60q0 197 105 322.5t317 125.5h350v-629h166v629h350v-1760h-350v798h-166v-798h-350z" />
    <glyph glyph-name="uniA78D" unicode="&#xa78d;" horiz-adv-x="1022" 
d="M594 0v798h-516v962h350v-629h166v629h350v-1760h-350z" />
    <glyph glyph-name="I" unicode="I" horiz-adv-x="464" 
d="M62 0v1760h340v-1760h-340z" />
    <glyph glyph-name="IJ" unicode="&#x132;" horiz-adv-x="1419" 
d="M62 0v1760h340v-1760h-340zM932 -16q-119 0 -217 46t-155.5 136.5t-57.5 222.5v441h348v-420q0 -46 18.5 -74t59.5 -28q79 0 79 97v1355h355v-1320q0 -140 -55 -242.5t-152 -158t-223 -55.5z" />
    <glyph glyph-name="Iacute" unicode="&#xcd;" horiz-adv-x="464" 
d="M62 0v1760h340v-1760h-340zM-6 1813v223l475 218v-347z" />
    <glyph glyph-name="Iacute_J.loclNLD" horiz-adv-x="1419" 
d="M62 0v1760h340v-1760h-340zM-17 1816v223l475 218v-347zM932 -16q-119 0 -217 46t-155.5 136.5t-57.5 222.5v441h348v-420q0 -46 18.5 -74t59.5 -28q79 0 79 97v1355h355v-1320q0 -140 -55 -242.5t-152 -158t-223 -55.5zM948 1813v223l475 218v-347z" />
    <glyph glyph-name="Ibreve" unicode="&#x12c;" horiz-adv-x="464" 
d="M62 0v1760h340v-1760h-340zM235 1852q-175 0 -283.5 74t-108.5 237q0 21 3 42h256q0 -57 29 -86.5t106 -29.5t106 29.5t29 86.5h256q1 -10 1.5 -20t0.5 -15q0 -167 -107.5 -242.5t-287.5 -75.5z" />
    <glyph glyph-name="uni01CF" unicode="&#x1cf;" horiz-adv-x="464" 
d="M62 0v1760h340v-1760h-340zM28 1851l-241 403h359l86 -285l86 285h359l-241 -403h-408z" />
    <glyph glyph-name="Icircumflex" unicode="&#xce;" horiz-adv-x="464" 
d="M62 0v1760h340v-1760h-340zM-213 1851l241 403h408l241 -403h-359l-86 285l-86 -285h-359z" />
    <glyph glyph-name="uni0208" unicode="&#x208;" horiz-adv-x="464" 
d="M62 0v1760h340v-1760h-340zM35 1846l-289 429l234 108l221 -479zM337 1846l-248 429l230 108l184 -479z" />
    <glyph glyph-name="Idieresis" unicode="&#xcf;" horiz-adv-x="464" 
d="M62 0v1760h340v-1760h-340zM288 1859v298h358v-298h-358zM-196 1859v298h358v-298h-358z" />
    <glyph glyph-name="uni1E2E" unicode="&#x1e2e;" horiz-adv-x="464" 
d="M62 0v1760h340v-1760h-340zM295 1859v248h358v-248h-358zM-189 1859v248h358v-248h-358zM-5 2194v193l475 168v-287z" />
    <glyph glyph-name="Idotaccent" unicode="&#x130;" horiz-adv-x="464" 
d="M62 0v1760h340v-1760h-340zM53 1852v298h358v-298h-358z" />
    <glyph glyph-name="uni1ECA" unicode="&#x1eca;" horiz-adv-x="464" 
d="M62 0v1760h340v-1760h-340zM53 -417v298h358v-298h-358z" />
    <glyph glyph-name="Igrave" unicode="&#xcc;" horiz-adv-x="464" 
d="M62 0v1760h340v-1760h-340zM469 1813l-475 94v347l475 -218v-223z" />
    <glyph glyph-name="uni1EC8" unicode="&#x1ec8;" horiz-adv-x="464" 
d="M62 0v1760h340v-1760h-340zM203 1837l-106 124q54 20 87 50t33 80q0 95 -101 95q-47 0 -90 -16v180q88 33 183 33q125 0 195.5 -62.5t70.5 -175.5q0 -127 -78 -199.5t-194 -108.5z" />
    <glyph glyph-name="uni020A" unicode="&#x20a;" horiz-adv-x="464" 
d="M62 0v1760h340v-1760h-340zM-139 1868q-3 20 -3 41q0 163 98.5 237t273.5 74q180 0 277.5 -75.5t97.5 -242.5q0 -5 -0.5 -14.5t-1.5 -19.5h-236q0 68 -38 101t-97 33q-58 0 -96.5 -33t-38.5 -101h-236z" />
    <glyph glyph-name="Imacron" unicode="&#x12a;" horiz-adv-x="464" 
d="M62 0v1760h340v-1760h-340zM-89 1879v153h650v-153h-650z" />
    <glyph glyph-name="Iogonek" unicode="&#x12e;" horiz-adv-x="464" 
d="M62 0v1760h340v-1760h-340zM275 -631q-95 0 -174 36t-126.5 103.5t-47.5 161.5q0 182 264 330h211q-56 -58 -108 -127t-52 -152q0 -112 115 -112q49 0 116 23v-223q-95 -40 -198 -40z" />
    <glyph glyph-name="uni0196" unicode="&#x196;" horiz-adv-x="464" 
d="M482 -16q-184 0 -302 108.5t-118 319.5v1348h340v-1328q0 -85 21.5 -108.5t58.5 -23.5v-316z" />
    <glyph glyph-name="uni026A" unicode="&#x26a;" horiz-adv-x="616" 
d="M33 0v273h101v954h-101v273h550v-273h-101v-954h101v-273h-550z" />
    <glyph glyph-name="uni0197" unicode="&#x197;" horiz-adv-x="526" 
d="M93 0v785h-88v232h88v743h340v-743h88v-232h-88v-785h-340z" />
    <glyph glyph-name="Itilde" unicode="&#x128;" horiz-adv-x="464" 
d="M62 0v1760h340v-1760h-340zM397 1873q-74 0 -135.5 23t-111.5 45.5t-91 22.5q-26 0 -49 -15t-43 -53l-148 78q25 61 54.5 111.5t75.5 81t117 30.5t128.5 -21t105 -42t86.5 -21q27 0 50 17t43 58l166 -54q-24 -67 -53 -127t-74.5 -97t-120.5 -37z" />
    <glyph glyph-name="uni1E2C" unicode="&#x1e2c;" horiz-adv-x="464" 
d="M62 0v1760h340v-1760h-340zM397 -435q-74 0 -135.5 23t-111.5 45.5t-91 22.5q-26 0 -49 -15t-43 -53l-148 78q25 61 54.5 111.5t75.5 81t117 30.5t128.5 -21t105 -42t86.5 -21q27 0 50 17t43 58l166 -54q-24 -67 -53 -127t-74.5 -97t-120.5 -37z" />
    <glyph glyph-name="J" unicode="J" horiz-adv-x="955" 
d="M468 -16q-119 0 -217 46t-155.5 136.5t-57.5 222.5v441h348v-420q0 -46 18.5 -74t59.5 -28q79 0 79 97v1355h355v-1320q0 -140 -55 -242.5t-152 -158t-223 -55.5z" />
    <glyph glyph-name="Jcircumflex" unicode="&#x134;" horiz-adv-x="955" 
d="M468 -16q-119 0 -217 46t-155.5 136.5t-57.5 222.5v441h348v-420q0 -46 18.5 -74t59.5 -28q79 0 79 97v1355h355v-1320q0 -140 -55 -242.5t-152 -158t-223 -55.5zM276 1851l241 403h408l241 -403h-359l-86 285l-86 -285h-359z" />
    <glyph glyph-name="uniA7B2" unicode="&#xa7b2;" horiz-adv-x="975" 
d="M468 -16q-119 0 -217 46t-155.5 136.5t-57.5 222.5v175q0 234 124 379t381 163v654h355v-703q20 -7 42 -14.5t45 -16.5v-305q-23 9 -45 16.5t-42 14.5v-312q0 -140 -55 -242.5t-152 -158t-223 -55.5zM464 308q79 0 79 97v393q-85 -13 -121 -69t-36 -165v-154
q0 -46 18.5 -74t59.5 -28z" />
    <glyph glyph-name="uni0248" unicode="&#x248;" horiz-adv-x="975" 
d="M468 -16q-119 0 -217 46t-155.5 136.5t-57.5 222.5v441h348v-420q0 -46 18.5 -74t59.5 -28q79 0 79 97v650h-153v232h153v473h355v-473h86v-232h-86v-615q0 -140 -55 -242.5t-152 -158t-223 -55.5z" />
    <glyph glyph-name="K" unicode="K" horiz-adv-x="967" 
d="M78 0v1760h348v-705l164 705h354l-197 -806l238 -954h-365l-192 852v-852h-350z" />
    <glyph glyph-name="uni1E30" unicode="&#x1e30;" horiz-adv-x="967" 
d="M78 0v1760h348v-705l164 705h354l-197 -806l238 -954h-365l-192 852v-852h-350zM274 1813v223l475 218v-347z" />
    <glyph glyph-name="uni01E8" unicode="&#x1e8;" horiz-adv-x="967" 
d="M78 0v1760h348v-705l164 705h354l-197 -806l238 -954h-365l-192 852v-852h-350zM307 1851l-241 403h359l86 -285l86 285h359l-241 -403h-408z" />
    <glyph glyph-name="uni0136" unicode="&#x136;" horiz-adv-x="967" 
d="M78 0v1760h348v-705l164 705h354l-197 -806l238 -954h-365l-192 852v-852h-350zM384 -643l66 236h-127v298h374v-289l-102 -245h-211z" />
    <glyph glyph-name="uni1E32" unicode="&#x1e32;" horiz-adv-x="967" 
d="M78 0v1760h348v-705l164 705h354l-197 -806l238 -954h-365l-192 852v-852h-350zM344 -417v298h358v-298h-358z" />
    <glyph glyph-name="uni0198" unicode="&#x198;" horiz-adv-x="967" 
d="M78 0v1760h348v-705l164 705h354l-197 -806l238 -954h-365l-192 852v-852h-350z" />
    <glyph glyph-name="uni1E34" unicode="&#x1e34;" horiz-adv-x="967" 
d="M78 0v1760h348v-705l164 705h354l-197 -806l238 -954h-365l-192 852v-852h-350zM198 -272v153h650v-153h-650z" />
    <glyph glyph-name="uniA740" unicode="&#xa740;" horiz-adv-x="982" 
d="M93 0v1479h-93v232h93v49h348v-49h75v-232h-75v-424l164 705h354l-197 -806l238 -954h-365l-192 852v-852h-350z" />
    <glyph glyph-name="L" unicode="L" horiz-adv-x="814" 
d="M78 0v1760h352v-1460h362v-300h-714z" />
    <glyph glyph-name="uni01C7" unicode="&#x1c7;" horiz-adv-x="1769" 
d="M78 0v1760h352v-1460h362v-300h-714zM1282 -16q-119 0 -217 46t-155.5 136.5t-57.5 222.5v441h348v-420q0 -46 18.5 -74t59.5 -28q79 0 79 97v1355h355v-1320q0 -140 -55 -242.5t-152 -158t-223 -55.5z" />
    <glyph glyph-name="Lacute" unicode="&#x139;" horiz-adv-x="814" 
d="M78 0v1760h352v-1460h362v-300h-714zM16 1813v223l475 218v-347z" />
    <glyph glyph-name="uni023D" unicode="&#x23d;" horiz-adv-x="814" 
d="M78 0v1760h352v-1460h362v-300h-714zM-36 799v232h660v-232h-660z" />
    <glyph glyph-name="uniA7AD" unicode="&#xa7ad;" horiz-adv-x="1004" 
d="M268 0v725q-119 9 -198.5 80.5t-79.5 188.5q0 133 73 207.5t205 82.5v477h352v-806h140v-231h-140v-424h362v-300h-714zM184 1015q0 -60 84 -60v119q-84 -2 -84 -59z" />
    <glyph glyph-name="Lcaron" unicode="&#x13d;" horiz-adv-x="814" 
d="M78 0v1760h352v-1460h362v-300h-714zM514 1226l76 236h-75v298h312v-289l-102 -245h-211z" />
    <glyph glyph-name="uni1E3C" unicode="&#x1e3c;" horiz-adv-x="814" 
d="M78 0v1760h352v-1460h362v-300h-714zM-12 -512l241 403h408l241 -403h-359l-86 285l-86 -285h-359z" />
    <glyph glyph-name="uni013B" unicode="&#x13b;" horiz-adv-x="814" 
d="M78 0v1760h352v-1460h362v-300h-714zM294 -643l66 236h-127v298h374v-289l-102 -245h-211z" />
    <glyph glyph-name="Ldot" unicode="&#x13f;" horiz-adv-x="924" 
d="M78 0v1760h352v-1460h362v-300h-714zM552 756v338h328v-338h-328z" />
    <glyph glyph-name="uni1E36" unicode="&#x1e36;" horiz-adv-x="814" 
d="M78 0v1760h352v-1460h362v-300h-714zM254 -417v298h358v-298h-358z" />
    <glyph glyph-name="uni1E38" unicode="&#x1e38;" horiz-adv-x="814" 
d="M78 0v1760h352v-1460h362v-300h-714zM254 -417v298h358v-298h-358zM-73 1879v153h650v-153h-650z" />
    <glyph glyph-name="uni2C60" unicode="&#x2c60;" horiz-adv-x="814" 
d="M78 0v1760h352v-1460h362v-300h-714zM-36 979v232h660v-232h-660zM-36 619v232h660v-232h-660z" />
    <glyph glyph-name="uni01C8" unicode="&#x1c8;" horiz-adv-x="1352" 
d="M78 0v1760h352v-1460h362v-300h-714zM924 1592v298h358v-298h-358zM1000 -260q-114 0 -152 26v240q18 -5 33 -5q29 0 36 20t7 51v1428h358v-1418q0 -160 -63.5 -251t-218.5 -91z" />
    <glyph glyph-name="uni1E3A" unicode="&#x1e3a;" horiz-adv-x="814" 
d="M78 0v1760h352v-1460h362v-300h-714zM108 -272v153h650v-153h-650z" />
    <glyph glyph-name="uni2C62" unicode="&#x2c62;" horiz-adv-x="943" 
d="M207 0v1760h352v-1460h362v-300h-714zM548 776q-77 0 -136 23t-107.5 45.5t-94.5 22.5q-26 0 -49 -15t-43 -53l-148 78q25 61 54.5 111.5t75.5 81t117 30.5q74 0 131 -21t103.5 -42t85.5 -21q27 0 50 17t43 58l166 -54q-24 -67 -53 -127t-74.5 -97t-120.5 -37z" />
    <glyph glyph-name="Lslash" unicode="&#x141;" horiz-adv-x="853" 
d="M78 0v718l-89 -39v322l89 39v720h352v-567l206 90v-322l-206 -90v-571h362v-300h-714z" />
    <glyph glyph-name="M" unicode="M" horiz-adv-x="1528" 
d="M78 0v1760h536l148 -1073l147 1073h541v-1760h-322v1268l-202 -1268h-316l-214 1268v-1268h-318z" />
    <glyph glyph-name="uni1E3E" unicode="&#x1e3e;" horiz-adv-x="1528" 
d="M78 0v1760h536l148 -1073l147 1073h541v-1760h-322v1268l-202 -1268h-316l-214 1268v-1268h-318zM525 1813v223l475 218v-347z" />
    <glyph glyph-name="uni1E40" unicode="&#x1e40;" horiz-adv-x="1528" 
d="M78 0v1760h536l148 -1073l147 1073h541v-1760h-322v1268l-202 -1268h-316l-214 1268v-1268h-318zM583 1852v298h358v-298h-358z" />
    <glyph glyph-name="uni1E42" unicode="&#x1e42;" horiz-adv-x="1528" 
d="M78 0v1760h536l148 -1073l147 1073h541v-1760h-322v1268l-202 -1268h-316l-214 1268v-1268h-318zM585 -417v298h358v-298h-358z" />
    <glyph glyph-name="uni019C" unicode="&#x19c;" horiz-adv-x="1551" 
d="M369 -16q-160 0 -225.5 109.5t-65.5 316.5v1350h345v-1356q0 -148 86 -148q48 0 70.5 51.5t22.5 121.5v1331h345v-1356q0 -64 19 -104t65 -40q53 0 75 56t22 132v1312h345v-1760h-343v177q-25 -98 -82 -145.5t-178 -47.5q-88 0 -154.5 41t-92.5 111q-45 -79 -101 -115.5
t-153 -36.5z" />
    <glyph glyph-name="N" unicode="N" horiz-adv-x="1020" 
d="M78 0v1760h362l162 -843v843h340v-1760h-344l-176 880v-880h-344z" />
    <glyph glyph-name="uni01CA" unicode="&#x1ca;" horiz-adv-x="1975" 
d="M78 0v1760h362l162 -843v843h340v-1760h-344l-176 880v-880h-344zM1488 -16q-119 0 -217 46t-155.5 136.5t-57.5 222.5v441h348v-420q0 -46 18.5 -74t59.5 -28q79 0 79 97v1355h355v-1320q0 -140 -55 -242.5t-152 -158t-223 -55.5z" />
    <glyph glyph-name="Nacute" unicode="&#x143;" horiz-adv-x="1020" 
d="M78 0v1760h362l162 -843v843h340v-1760h-344l-176 880v-880h-344zM293 1813v223l475 218v-347z" />
    <glyph glyph-name="Ncaron" unicode="&#x147;" horiz-adv-x="1020" 
d="M78 0v1760h362l162 -843v843h340v-1760h-344l-176 880v-880h-344zM327 1851l-241 403h359l86 -285l86 285h359l-241 -403h-408z" />
    <glyph glyph-name="uni1E4A" unicode="&#x1e4a;" horiz-adv-x="1020" 
d="M78 0v1760h362l162 -843v843h340v-1760h-344l-176 880v-880h-344zM58 -512l241 403h408l241 -403h-359l-86 285l-86 -285h-359z" />
    <glyph glyph-name="uni0145" unicode="&#x145;" horiz-adv-x="1020" 
d="M78 0v1760h362l162 -843v843h340v-1760h-344l-176 880v-880h-344zM364 -643l66 236h-127v298h374v-289l-102 -245h-211z" />
    <glyph glyph-name="uni1E44" unicode="&#x1e44;" horiz-adv-x="1020" 
d="M78 0v1760h362l162 -843v843h340v-1760h-344l-176 880v-880h-344zM352 1852v298h358v-298h-358z" />
    <glyph glyph-name="uni1E46" unicode="&#x1e46;" horiz-adv-x="1020" 
d="M78 0v1760h362l162 -843v843h340v-1760h-344l-176 880v-880h-344zM324 -417v298h358v-298h-358z" />
    <glyph glyph-name="uni01F8" unicode="&#x1f8;" horiz-adv-x="1020" 
d="M78 0v1760h362l162 -843v843h340v-1760h-344l-176 880v-880h-344zM768 1813l-475 94v347l475 -218v-223z" />
    <glyph glyph-name="uni019D" unicode="&#x19d;" horiz-adv-x="1020" 
d="M-52 -488v302q130 0 130 155v1791h362l162 -843v843h340v-1760h-344l-176 880v-888q0 -238 -127 -359t-347 -121z" />
    <glyph glyph-name="uni01CB" unicode="&#x1cb;" horiz-adv-x="1558" 
d="M78 0v1760h362l162 -843v843h340v-1760h-344l-176 880v-880h-344zM1130 1592v298h358v-298h-358zM1206 -260q-114 0 -152 26v240q18 -5 33 -5q29 0 36 20t7 51v1428h358v-1418q0 -160 -63.5 -251t-218.5 -91z" />
    <glyph glyph-name="uni1E48" unicode="&#x1e48;" horiz-adv-x="1020" 
d="M78 0v1760h362l162 -843v843h340v-1760h-344l-176 880v-880h-344zM178 -272v153h650v-153h-650z" />
    <glyph glyph-name="uni0220" unicode="&#x220;" horiz-adv-x="1020" 
d="M602 -186v1514q0 64 -19.5 100.5t-64.5 36.5q-63 0 -81.5 -43t-18.5 -126v-1296h-340v1760h338v-186q23 90 83.5 146t151.5 56q149 0 220 -91t71 -260v-1611h-340z" />
    <glyph glyph-name="Ntilde" unicode="&#xd1;" horiz-adv-x="1020" 
d="M78 0v1760h362l162 -843v843h340v-1760h-344l-176 880v-880h-344zM696 1871q-74 0 -135.5 23t-111.5 45.5t-91 22.5q-26 0 -49 -15t-43 -53l-148 78q25 61 54.5 111.5t75.5 81t117 30.5t128.5 -21t105 -42t86.5 -21q27 0 50 17t43 58l166 -54q-24 -67 -53 -127t-74.5 -97
t-120.5 -37z" />
    <glyph glyph-name="O" unicode="O" horiz-adv-x="996" 
d="M498 -16q-211 0 -322.5 127.5t-111.5 368.5v836q0 226 110.5 343t323.5 117t323.5 -117t110.5 -343v-836q0 -241 -111.5 -368.5t-322.5 -127.5zM501 308q80 0 80 155v859q0 130 -78 130q-88 0 -88 -133v-858q0 -82 20 -117.5t66 -35.5z" />
    <glyph glyph-name="OE" unicode="&#x152;" horiz-adv-x="1330" 
d="M606 0q-556 0 -556 430v926q0 155 69.5 243t193 124.5t285.5 36.5h670v-309h-337v-368h323v-299h-323v-473h360v-311h-685zM513 311h61v1140h-55q-59 0 -90 -36.5t-31 -100.5v-834q0 -70 27 -119.5t88 -49.5z" />
    <glyph glyph-name="uni0222" unicode="&#x222;" horiz-adv-x="996" 
d="M498 -16q-214 0 -324 130t-110 365v204q0 99 23.5 174t66.5 129q-84 115 -84 317v457h342v-463q0 -84 16 -130t70 -46t70 45.5t16 130.5v463h342v-457q0 -202 -84 -317q43 -54 66.5 -129t23.5 -174v-204q0 -238 -110 -366.5t-324 -128.5zM498 308q47 0 63.5 41t16.5 114
v247q0 56 -15 92.5t-63 36.5q-88 0 -88 -133v-245q0 -75 18.5 -114t67.5 -39z" />
    <glyph glyph-name="Oacute" unicode="&#xd3;" horiz-adv-x="996" 
d="M498 -16q-211 0 -322.5 127.5t-111.5 368.5v836q0 226 110.5 343t323.5 117t323.5 -117t110.5 -343v-836q0 -241 -111.5 -368.5t-322.5 -127.5zM501 308q80 0 80 155v859q0 130 -78 130q-88 0 -88 -133v-858q0 -82 20 -117.5t66 -35.5zM261 1813v223l475 218v-347z" />
    <glyph glyph-name="Obreve" unicode="&#x14e;" horiz-adv-x="996" 
d="M498 -16q-211 0 -322.5 127.5t-111.5 368.5v836q0 226 110.5 343t323.5 117t323.5 -117t110.5 -343v-836q0 -241 -111.5 -368.5t-322.5 -127.5zM501 308q80 0 80 155v859q0 130 -78 130q-88 0 -88 -133v-858q0 -82 20 -117.5t66 -35.5zM502 1852q-175 0 -283.5 74
t-108.5 237q0 21 3 42h256q0 -57 29 -86.5t106 -29.5t106 29.5t29 86.5h256q1 -10 1.5 -20t0.5 -15q0 -167 -107.5 -242.5t-287.5 -75.5z" />
    <glyph glyph-name="uni01D1" unicode="&#x1d1;" horiz-adv-x="996" 
d="M498 -16q-211 0 -322.5 127.5t-111.5 368.5v836q0 226 110.5 343t323.5 117t323.5 -117t110.5 -343v-836q0 -241 -111.5 -368.5t-322.5 -127.5zM501 308q80 0 80 155v859q0 130 -78 130q-88 0 -88 -133v-858q0 -82 20 -117.5t66 -35.5zM295 1851l-241 403h359l86 -285
l86 285h359l-241 -403h-408z" />
    <glyph glyph-name="uni019F" unicode="&#x19f;" horiz-adv-x="996" 
d="M498 -16q-211 0 -322.5 127.5t-111.5 368.5v836q0 226 110.5 343t323.5 117t323.5 -117t110.5 -343v-836q0 -241 -111.5 -368.5t-322.5 -127.5zM501 308q80 0 80 155v859q0 130 -78 130q-88 0 -88 -133v-858q0 -82 20 -117.5t66 -35.5zM147 769v232h660v-232h-660z" />
    <glyph glyph-name="Ocircumflex" unicode="&#xd4;" horiz-adv-x="996" 
d="M498 -16q-211 0 -322.5 127.5t-111.5 368.5v836q0 226 110.5 343t323.5 117t323.5 -117t110.5 -343v-836q0 -241 -111.5 -368.5t-322.5 -127.5zM501 308q80 0 80 155v859q0 130 -78 130q-88 0 -88 -133v-858q0 -82 20 -117.5t66 -35.5zM54 1851l241 403h408l241 -403
h-359l-86 285l-86 -285h-359z" />
    <glyph glyph-name="uni1ED0" unicode="&#x1ed0;" horiz-adv-x="996" 
d="M498 -16q-211 0 -322.5 127.5t-111.5 368.5v836q0 226 110.5 343t323.5 117t323.5 -117t110.5 -343v-836q0 -241 -111.5 -368.5t-322.5 -127.5zM501 308q80 0 80 155v859q0 130 -78 130q-88 0 -88 -133v-858q0 -82 20 -117.5t66 -35.5zM787 2000l114 204h307l-188 -204
h-233zM114 1839l237 254h294l237 -254h-285l-99 135l-99 -135h-285z" />
    <glyph glyph-name="uni1ED8" unicode="&#x1ed8;" horiz-adv-x="996" 
d="M498 -16q-211 0 -322.5 127.5t-111.5 368.5v836q0 226 110.5 343t323.5 117t323.5 -117t110.5 -343v-836q0 -241 -111.5 -368.5t-322.5 -127.5zM501 308q80 0 80 155v859q0 130 -78 130q-88 0 -88 -133v-858q0 -82 20 -117.5t66 -35.5zM319 -417v298h358v-298h-358z
M53 1861l241 333h408l241 -333h-359l-86 215l-86 -215h-359z" />
    <glyph glyph-name="uni1ED2" unicode="&#x1ed2;" horiz-adv-x="996" 
d="M498 -16q-211 0 -322.5 127.5t-111.5 368.5v836q0 226 110.5 343t323.5 117t323.5 -117t110.5 -343v-836q0 -241 -111.5 -368.5t-322.5 -127.5zM501 308q80 0 80 155v859q0 130 -78 130q-88 0 -88 -133v-858q0 -82 20 -117.5t66 -35.5zM854 2000l-188 204h307l114 -204
h-233zM114 1839l237 254h294l237 -254h-285l-99 135l-99 -135h-285z" />
    <glyph glyph-name="uni1ED4" unicode="&#x1ed4;" horiz-adv-x="996" 
d="M498 -16q-211 0 -322.5 127.5t-111.5 368.5v836q0 226 110.5 343t323.5 117t323.5 -117t110.5 -343v-836q0 -241 -111.5 -368.5t-322.5 -127.5zM501 308q80 0 80 155v859q0 130 -78 130q-88 0 -88 -133v-858q0 -82 20 -117.5t66 -35.5zM868 1959l-66 77q34 13 54.5 31.5
t20.5 49.5q0 59 -63 59q-28 0 -56 -10v112q57 21 114 21q77 0 121 -39t44 -109q0 -79 -48.5 -124t-120.5 -68zM114 1839l237 254h294l237 -254h-285l-99 135l-99 -135h-285z" />
    <glyph glyph-name="uni1ED6" unicode="&#x1ed6;" horiz-adv-x="996" 
d="M498 -16q-211 0 -322.5 127.5t-111.5 368.5v836q0 226 110.5 343t323.5 117t323.5 -117t110.5 -343v-836q0 -241 -111.5 -368.5t-322.5 -127.5zM501 308q80 0 80 155v859q0 130 -78 130q-88 0 -88 -133v-858q0 -82 20 -117.5t66 -35.5zM618 2142q-45 0 -84.5 17t-77 34
t-77.5 17q-24 0 -45 -11t-39 -40l-111 58q26 65 62 111.5t111 46.5q47 0 86 -17t76 -34t77 -17q50 0 84 56l125 -40q-28 -70 -65 -125.5t-122 -55.5zM114 1839l237 254h294l237 -254h-285l-99 135l-99 -135h-285z" />
    <glyph glyph-name="uni020C" unicode="&#x20c;" horiz-adv-x="996" 
d="M498 -16q-211 0 -322.5 127.5t-111.5 368.5v836q0 226 110.5 343t323.5 117t323.5 -117t110.5 -343v-836q0 -241 -111.5 -368.5t-322.5 -127.5zM501 308q80 0 80 155v859q0 130 -78 130q-88 0 -88 -133v-858q0 -82 20 -117.5t66 -35.5zM302 1846l-289 429l234 108
l221 -479zM604 1846l-248 429l230 108l184 -479z" />
    <glyph glyph-name="Odieresis" unicode="&#xd6;" horiz-adv-x="996" 
d="M498 -16q-211 0 -322.5 127.5t-111.5 368.5v836q0 226 110.5 343t323.5 117t323.5 -117t110.5 -343v-836q0 -241 -111.5 -368.5t-322.5 -127.5zM501 308q80 0 80 155v859q0 130 -78 130q-88 0 -88 -133v-858q0 -82 20 -117.5t66 -35.5zM555 1859v298h358v-298h-358z
M71 1859v298h358v-298h-358z" />
    <glyph glyph-name="uni022A" unicode="&#x22a;" horiz-adv-x="996" 
d="M498 -16q-211 0 -322.5 127.5t-111.5 368.5v836q0 226 110.5 343t323.5 117t323.5 -117t110.5 -343v-836q0 -241 -111.5 -368.5t-322.5 -127.5zM501 308q80 0 80 155v859q0 130 -78 130q-88 0 -88 -133v-858q0 -82 20 -117.5t66 -35.5zM561 1859v248h358v-248h-358z
M77 1859v248h358v-248h-358zM173 2216v153h650v-153h-650z" />
    <glyph glyph-name="uni022E" unicode="&#x22e;" horiz-adv-x="996" 
d="M498 -16q-211 0 -322.5 127.5t-111.5 368.5v836q0 226 110.5 343t323.5 117t323.5 -117t110.5 -343v-836q0 -241 -111.5 -368.5t-322.5 -127.5zM501 308q80 0 80 155v859q0 130 -78 130q-88 0 -88 -133v-858q0 -82 20 -117.5t66 -35.5zM320 1852v298h358v-298h-358z" />
    <glyph glyph-name="uni0230" unicode="&#x230;" horiz-adv-x="996" 
d="M498 -16q-211 0 -322.5 127.5t-111.5 368.5v836q0 226 110.5 343t323.5 117t323.5 -117t110.5 -343v-836q0 -241 -111.5 -368.5t-322.5 -127.5zM501 308q80 0 80 155v859q0 130 -78 130q-88 0 -88 -133v-858q0 -82 20 -117.5t66 -35.5zM319 1852v258h358v-258h-358z
M173 2198v153h650v-153h-650z" />
    <glyph glyph-name="uni1ECC" unicode="&#x1ecc;" horiz-adv-x="996" 
d="M498 -16q-211 0 -322.5 127.5t-111.5 368.5v836q0 226 110.5 343t323.5 117t323.5 -117t110.5 -343v-836q0 -241 -111.5 -368.5t-322.5 -127.5zM501 308q80 0 80 155v859q0 130 -78 130q-88 0 -88 -133v-858q0 -82 20 -117.5t66 -35.5zM319 -417v298h358v-298h-358z" />
    <glyph glyph-name="Ograve" unicode="&#xd2;" horiz-adv-x="996" 
d="M498 -16q-211 0 -322.5 127.5t-111.5 368.5v836q0 226 110.5 343t323.5 117t323.5 -117t110.5 -343v-836q0 -241 -111.5 -368.5t-322.5 -127.5zM501 308q80 0 80 155v859q0 130 -78 130q-88 0 -88 -133v-858q0 -82 20 -117.5t66 -35.5zM736 1813l-475 94v347l475 -218
v-223z" />
    <glyph glyph-name="uni2126" unicode="&#x2126;" horiz-adv-x="992" 
d="M47 0v246h122q-97 148 -97 464v479q0 205 108 311.5t316 106.5q209 0 316.5 -106.5t107.5 -311.5v-479q0 -316 -97 -464h122v-246h-416v247q23 19 34 42t14.5 65t3.5 117v740q0 53 -16.5 88.5t-68.5 35.5t-68.5 -35.5t-16.5 -88.5v-740q0 -112 13.5 -155t38.5 -69v-247
h-416z" />
    <glyph glyph-name="uni1ECE" unicode="&#x1ece;" horiz-adv-x="996" 
d="M498 -16q-211 0 -322.5 127.5t-111.5 368.5v836q0 226 110.5 343t323.5 117t323.5 -117t110.5 -343v-836q0 -241 -111.5 -368.5t-322.5 -127.5zM501 308q80 0 80 155v859q0 130 -78 130q-88 0 -88 -133v-858q0 -82 20 -117.5t66 -35.5zM469 1837l-106 124q54 20 87 50
t33 80q0 95 -101 95q-47 0 -90 -16v180q88 33 183 33q125 0 195.5 -62.5t70.5 -175.5q0 -127 -78 -199.5t-194 -108.5z" />
    <glyph glyph-name="Ohorn" unicode="&#x1a0;" horiz-adv-x="999" 
d="M498 -16q-216 0 -325 130.5t-109 365.5v836q0 227 112 343.5t324 116.5h76q115 0 115 125v23h278v-15q0 -105 -32.5 -174.5t-87.5 -108.5q83 -115 83 -310v-836q0 -235 -109 -365.5t-325 -130.5zM498 308q50 0 65 45.5t15 109.5v859q0 47 -13 88.5t-65 41.5
q-51 0 -69.5 -38.5t-18.5 -94.5v-858q0 -69 16 -111t70 -42z" />
    <glyph glyph-name="uni1EDA" unicode="&#x1eda;" horiz-adv-x="999" 
d="M498 -16q-216 0 -325 130.5t-109 365.5v836q0 227 112 343.5t324 116.5h76q115 0 115 125v23h278v-15q0 -105 -32.5 -174.5t-87.5 -108.5q83 -115 83 -310v-836q0 -235 -109 -365.5t-325 -130.5zM498 308q50 0 65 45.5t15 109.5v859q0 47 -13 88.5t-65 41.5
q-51 0 -69.5 -38.5t-18.5 -94.5v-858q0 -69 16 -111t70 -42zM263 1932v193l475 168v-287z" />
    <glyph glyph-name="uni1EE2" unicode="&#x1ee2;" horiz-adv-x="999" 
d="M498 -16q-216 0 -325 130.5t-109 365.5v836q0 227 112 343.5t324 116.5h76q115 0 115 125v23h278v-15q0 -105 -32.5 -174.5t-87.5 -108.5q83 -115 83 -310v-836q0 -235 -109 -365.5t-325 -130.5zM498 308q50 0 65 45.5t15 109.5v859q0 47 -13 88.5t-65 41.5
q-51 0 -69.5 -38.5t-18.5 -94.5v-858q0 -69 16 -111t70 -42zM319 -417v298h358v-298h-358z" />
    <glyph glyph-name="uni1EDC" unicode="&#x1edc;" horiz-adv-x="999" 
d="M498 -16q-216 0 -325 130.5t-109 365.5v836q0 227 112 343.5t324 116.5h76q115 0 115 125v23h278v-15q0 -105 -32.5 -174.5t-87.5 -108.5q83 -115 83 -310v-836q0 -235 -109 -365.5t-325 -130.5zM498 308q50 0 65 45.5t15 109.5v859q0 47 -13 88.5t-65 41.5
q-51 0 -69.5 -38.5t-18.5 -94.5v-858q0 -69 16 -111t70 -42zM737 1962l-475 74v287l475 -168v-193z" />
    <glyph glyph-name="uni1EDE" unicode="&#x1ede;" horiz-adv-x="999" 
d="M498 -16q-216 0 -325 130.5t-109 365.5v836q0 227 112 343.5t324 116.5h76q115 0 115 125v23h278v-15q0 -105 -32.5 -174.5t-87.5 -108.5q83 -115 83 -310v-836q0 -235 -109 -365.5t-325 -130.5zM498 308q50 0 65 45.5t15 109.5v859q0 47 -13 88.5t-65 41.5
q-51 0 -69.5 -38.5t-18.5 -94.5v-858q0 -69 16 -111t70 -42zM471 1922l-106 124q54 20 87 50t33 80q0 95 -101 95q-47 0 -90 -16v180q88 33 183 33q125 0 195.5 -62.5t70.5 -175.5q0 -127 -78 -199.5t-194 -108.5z" />
    <glyph glyph-name="uni1EE0" unicode="&#x1ee0;" horiz-adv-x="999" 
d="M498 -16q-216 0 -325 130.5t-109 365.5v836q0 227 112 343.5t324 116.5h76q115 0 115 125v23h278v-15q0 -105 -32.5 -174.5t-87.5 -108.5q83 -115 83 -310v-836q0 -235 -109 -365.5t-325 -130.5zM498 308q50 0 65 45.5t15 109.5v859q0 47 -13 88.5t-65 41.5
q-51 0 -69.5 -38.5t-18.5 -94.5v-858q0 -69 16 -111t70 -42zM665 2006q-74 0 -135.5 23t-111.5 45.5t-91 22.5q-26 0 -49 -15t-43 -53l-148 78q25 55 54.5 101t75.5 74t117 28t129.5 -21t105.5 -42t85 -21q27 0 50 17t43 58l166 -54q-24 -62 -53 -117.5t-74.5 -89.5
t-120.5 -34z" />
    <glyph glyph-name="Ohungarumlaut" unicode="&#x150;" horiz-adv-x="996" 
d="M498 -16q-211 0 -322.5 127.5t-111.5 368.5v836q0 226 110.5 343t323.5 117t323.5 -117t110.5 -343v-836q0 -241 -111.5 -368.5t-322.5 -127.5zM501 308q80 0 80 155v859q0 130 -78 130q-88 0 -88 -133v-858q0 -82 20 -117.5t66 -35.5zM681 1866l-166 58l221 479
l234 -108zM379 1866l-166 58l184 479l230 -108z" />
    <glyph glyph-name="uni020E" unicode="&#x20e;" horiz-adv-x="996" 
d="M498 -16q-211 0 -322.5 127.5t-111.5 368.5v836q0 226 110.5 343t323.5 117t323.5 -117t110.5 -343v-836q0 -241 -111.5 -368.5t-322.5 -127.5zM501 308q80 0 80 155v859q0 130 -78 130q-88 0 -88 -133v-858q0 -82 20 -117.5t66 -35.5zM128 1868q-3 20 -3 41
q0 163 98.5 237t273.5 74q180 0 277.5 -75.5t97.5 -242.5q0 -5 -0.5 -14.5t-1.5 -19.5h-236q0 68 -38 101t-97 33q-58 0 -96.5 -33t-38.5 -101h-236z" />
    <glyph glyph-name="Omacron" unicode="&#x14c;" horiz-adv-x="996" 
d="M498 -16q-211 0 -322.5 127.5t-111.5 368.5v836q0 226 110.5 343t323.5 117t323.5 -117t110.5 -343v-836q0 -241 -111.5 -368.5t-322.5 -127.5zM501 308q80 0 80 155v859q0 130 -78 130q-88 0 -88 -133v-858q0 -82 20 -117.5t66 -35.5zM173 1879v153h650v-153h-650z" />
    <glyph glyph-name="uni1E52" unicode="&#x1e52;" horiz-adv-x="996" 
d="M498 -16q-211 0 -322.5 127.5t-111.5 368.5v836q0 226 110.5 343t323.5 117t323.5 -117t110.5 -343v-836q0 -241 -111.5 -368.5t-322.5 -127.5zM501 308q80 0 80 155v859q0 130 -78 130q-88 0 -88 -133v-858q0 -82 20 -117.5t66 -35.5zM173 1819v153h650v-153h-650z
M261 2017v193l475 168v-287z" />
    <glyph glyph-name="uni1E50" unicode="&#x1e50;" horiz-adv-x="996" 
d="M498 -16q-211 0 -322.5 127.5t-111.5 368.5v836q0 226 110.5 343t323.5 117t323.5 -117t110.5 -343v-836q0 -241 -111.5 -368.5t-322.5 -127.5zM501 308q80 0 80 155v859q0 130 -78 130q-88 0 -88 -133v-858q0 -82 20 -117.5t66 -35.5zM173 1819v153h650v-153h-650z
M736 2017l-475 74v287l475 -168v-193z" />
    <glyph glyph-name="uni03A9" unicode="&#x3a9;" horiz-adv-x="992" 
d="M47 0v246h122q-97 148 -97 464v642q0 205 108 311.5t316 106.5q209 0 316.5 -106.5t107.5 -311.5v-642q0 -316 -97 -464h122v-246h-416v247q33 26 42.5 99t9.5 185v843q0 53 -16.5 88.5t-68.5 35.5t-68.5 -35.5t-16.5 -88.5v-843q0 -112 9.5 -185t42.5 -99v-247h-416z
" />
    <glyph glyph-name="uniA7B6" unicode="&#xa7b6;" horiz-adv-x="1517" 
d="M452 -16q-199 0 -293.5 126.5t-94.5 363.5v843q0 134 47.5 237.5t144 162.5t241.5 59v-303q-43 0 -63.5 -22t-20.5 -73v-916q0 -76 18.5 -115t67.5 -39q48 0 65 40.5t17 113.5v717h355v-717q0 -76 17.5 -115t66.5 -39q46 0 65 40.5t19 113.5v916q0 51 -20.5 73t-63.5 22
v303q146 0 242 -59t143.5 -162.5t47.5 -237.5v-843q0 -240 -94.5 -365t-291.5 -125q-91 0 -171 35t-136 127q-57 -92 -135.5 -127t-172.5 -35z" />
    <glyph glyph-name="uni01EA" unicode="&#x1ea;" horiz-adv-x="996" 
d="M498 -16q-211 0 -322.5 127.5t-111.5 368.5v836q0 226 110.5 343t323.5 117t323.5 -117t110.5 -343v-836q0 -241 -111.5 -368.5t-322.5 -127.5zM501 308q80 0 80 155v859q0 130 -78 130q-88 0 -88 -133v-858q0 -82 20 -117.5t66 -35.5zM662 -551q-95 0 -174 36
t-126.5 103.5t-47.5 161.5q0 182 264 330h211q-56 -58 -108 -127t-52 -152q0 -112 115 -112q49 0 116 23v-223q-95 -40 -198 -40z" />
    <glyph glyph-name="uni01EC" unicode="&#x1ec;" horiz-adv-x="996" 
d="M498 -16q-211 0 -322.5 127.5t-111.5 368.5v836q0 226 110.5 343t323.5 117t323.5 -117t110.5 -343v-836q0 -241 -111.5 -368.5t-322.5 -127.5zM501 308q80 0 80 155v859q0 130 -78 130q-88 0 -88 -133v-858q0 -82 20 -117.5t66 -35.5zM662 -551q-95 0 -174 36
t-126.5 103.5t-47.5 161.5q0 182 264 330h211q-68 -65 -114 -130.5t-46 -148.5q0 -112 115 -112q49 0 116 23v-223q-95 -40 -198 -40zM173 1819v153h650v-153h-650z" />
    <glyph glyph-name="uni0186" unicode="&#x186;" horiz-adv-x="971" 
d="M483 -16q-210 0 -327 104.5t-117 336.5v333h354v-317q0 -59 18.5 -96t63.5 -37q41 0 62 30t21 103v881q0 59 -17 94.5t-66 35.5q-42 0 -62 -27.5t-20 -106.5v-260h-350v304q0 139 56 230.5t153.5 137.5t222.5 46q229 0 330.5 -136t101.5 -392v-812q0 -214 -116.5 -333
t-307.5 -119z" />
    <glyph glyph-name="Oslash" unicode="&#xd8;" horiz-adv-x="996" 
d="M111 -186l74 287q-121 128 -121 379v836q0 227 111.5 343.5t322.5 116.5q87 0 158 -20l63 244h140l-78 -305q151 -114 151 -379v-836q0 -235 -109 -365.5t-325 -130.5q-110 0 -194 35l-53 -205h-140zM501 308q50 0 65 45.5t15 109.5v859q0 47 -13 88.5t-65 41.5
q-51 0 -69.5 -38.5t-18.5 -94.5v-858q0 -69 16 -111t70 -42z" />
    <glyph glyph-name="Oslashacute" unicode="&#x1fe;" horiz-adv-x="996" 
d="M111 -186l74 287q-121 128 -121 379v836q0 227 111.5 343.5t322.5 116.5q87 0 158 -20l63 244h140l-78 -305q151 -114 151 -379v-836q0 -235 -109 -365.5t-325 -130.5q-110 0 -194 35l-53 -205h-140zM501 308q50 0 65 45.5t15 109.5v859q0 47 -13 88.5t-65 41.5
q-51 0 -69.5 -38.5t-18.5 -94.5v-858q0 -69 16 -111t70 -42zM257 1950v223l475 218v-347z" />
    <glyph glyph-name="Otilde" unicode="&#xd5;" horiz-adv-x="996" 
d="M498 -16q-211 0 -322.5 127.5t-111.5 368.5v836q0 226 110.5 343t323.5 117t323.5 -117t110.5 -343v-836q0 -241 -111.5 -368.5t-322.5 -127.5zM501 308q80 0 80 155v859q0 130 -78 130q-88 0 -88 -133v-858q0 -82 20 -117.5t66 -35.5zM664 1871q-74 0 -135.5 23
t-111.5 45.5t-91 22.5q-26 0 -49 -15t-43 -53l-148 78q25 61 54.5 111.5t75.5 81t117 30.5t128.5 -21t105 -42t86.5 -21q27 0 50 17t43 58l166 -54q-24 -67 -53 -127t-74.5 -97t-120.5 -37z" />
    <glyph glyph-name="uni1E4C" unicode="&#x1e4c;" horiz-adv-x="996" 
d="M498 -16q-211 0 -322.5 127.5t-111.5 368.5v836q0 226 110.5 343t323.5 117t323.5 -117t110.5 -343v-836q0 -241 -111.5 -368.5t-322.5 -127.5zM501 308q80 0 80 155v859q0 130 -78 130q-88 0 -88 -133v-858q0 -82 20 -117.5t66 -35.5zM663 1841q-74 0 -135.5 23
t-111.5 45.5t-91 22.5q-26 0 -49 -15t-43 -53l-148 78q25 55 54.5 101t75.5 74t117 28t129.5 -21t105.5 -42t85 -21q27 0 50 17t43 58l166 -54q-24 -62 -53 -117.5t-74.5 -89.5t-120.5 -34zM261 2204v193l475 168v-287z" />
    <glyph glyph-name="uni1E4E" unicode="&#x1e4e;" horiz-adv-x="996" 
d="M498 -16q-211 0 -322.5 127.5t-111.5 368.5v836q0 226 110.5 343t323.5 117t323.5 -117t110.5 -343v-836q0 -241 -111.5 -368.5t-322.5 -127.5zM501 308q80 0 80 155v859q0 130 -78 130q-88 0 -88 -133v-858q0 -82 20 -117.5t66 -35.5zM663 1841q-74 0 -135.5 23
t-111.5 45.5t-91 22.5q-26 0 -49 -15t-43 -53l-148 78q25 55 54.5 101t75.5 74t117 28t129.5 -21t105.5 -42t85 -21q27 0 50 17t43 58l166 -54q-24 -62 -53 -117.5t-74.5 -89.5t-120.5 -34zM561 2266v248h358v-248h-358zM77 2266v248h358v-248h-358z" />
    <glyph glyph-name="uni022C" unicode="&#x22c;" horiz-adv-x="996" 
d="M498 -16q-211 0 -322.5 127.5t-111.5 368.5v836q0 226 110.5 343t323.5 117t323.5 -117t110.5 -343v-836q0 -241 -111.5 -368.5t-322.5 -127.5zM501 308q80 0 80 155v859q0 130 -78 130q-88 0 -88 -133v-858q0 -82 20 -117.5t66 -35.5zM663 1841q-74 0 -135.5 23
t-111.5 45.5t-91 22.5q-26 0 -49 -15t-43 -53l-148 78q25 55 54.5 101t75.5 74t117 28t129.5 -21t105.5 -42t85 -21q27 0 50 17t43 58l166 -54q-24 -62 -53 -117.5t-74.5 -89.5t-120.5 -34zM173 2226v153h650v-153h-650z" />
    <glyph glyph-name="P" unicode="P" horiz-adv-x="967" 
d="M78 0v1760h465q146 0 231.5 -65t122.5 -185t37 -286q0 -160 -31 -278.5t-110.5 -183.5t-225.5 -65h-143v-697h-346zM424 1013h20q98 0 120 55t22 162q0 100 -21.5 154.5t-101.5 54.5h-39v-426z" />
    <glyph glyph-name="uni1E54" unicode="&#x1e54;" horiz-adv-x="967" 
d="M78 0v1760h465q146 0 231.5 -65t122.5 -185t37 -286q0 -160 -31 -278.5t-110.5 -183.5t-225.5 -65h-143v-697h-346zM424 1013h20q98 0 120 55t22 162q0 100 -21.5 154.5t-101.5 54.5h-39v-426zM246 1813v223l475 218v-347z" />
    <glyph glyph-name="uni1E56" unicode="&#x1e56;" horiz-adv-x="967" 
d="M78 0v1760h465q146 0 231.5 -65t122.5 -185t37 -286q0 -160 -31 -278.5t-110.5 -183.5t-225.5 -65h-143v-697h-346zM424 1013h20q98 0 120 55t22 162q0 100 -21.5 154.5t-101.5 54.5h-39v-426zM304 1852v298h358v-298h-358z" />
    <glyph glyph-name="uni01A4" unicode="&#x1a4;" horiz-adv-x="1316" 
d="M427 0v1464q-59 0 -87 -36t-28 -116v-60h-307v60q0 197 105 322.5t317 125.5h465q146 0 231.5 -65t122.5 -185t37 -286q0 -160 -31 -278.5t-110.5 -183.5t-225.5 -65h-143v-697h-346zM773 1013h20q98 0 120 55t22 162q0 100 -21.5 154.5t-101.5 54.5h-39v-426z" />
    <glyph glyph-name="uni2C63" unicode="&#x2c63;" horiz-adv-x="967" 
d="M78 0v1115h-78v232h78v413h465q146 0 231.5 -65t122.5 -185t37 -286q0 -160 -31 -278.5t-110.5 -183.5t-225.5 -65h-143v-697h-346zM424 1013h20q98 0 120 55t22 162q0 100 -21.5 154.5t-101.5 54.5h-39v-92h92v-232h-92v-102z" />
    <glyph glyph-name="Q" unicode="Q" horiz-adv-x="1011" 
d="M856 -187l-280 184q-48 -13 -99 -13q-206 0 -314.5 122t-108.5 356v851q0 227 111.5 345t322.5 118t322.5 -118t111.5 -345v-851q0 -218 -98 -343l151 -96zM488 308q38 0 54.5 28t21 69t4.5 79v823q0 56 -15.5 100.5t-66.5 44.5q-52 0 -68 -43.5t-16 -100.5v-831
q0 -35 4.5 -74.5t22.5 -67t59 -27.5z" />
    <glyph glyph-name="uni024A" unicode="&#x24a;" horiz-adv-x="1049" 
d="M1059 -196q-127 0 -226 32t-155.5 103.5t-56.5 190.5v3q-39 -82 -106.5 -115.5t-151.5 -33.5q-129 0 -193 61.5t-85 170.5t-21 251v827q0 142 21 250.5t85 170t193 61.5q86 0 137 -43t81 -129v156h350v-1507q0 -71 30.5 -102t97.5 -31v-316zM499 278q47 0 64.5 44
t17.5 109v899q0 65 -17.5 108.5t-64.5 43.5q-51 0 -68 -40.5t-17 -111.5v-899q0 -71 17 -112t68 -41z" />
    <glyph glyph-name="R" unicode="R" horiz-adv-x="976" 
d="M78 0v1760h540q135 0 204 -61.5t92.5 -172t23.5 -259.5q0 -144 -36.5 -230t-137.5 -119q83 -17 116.5 -82.5t33.5 -169.5v-666h-347v689q0 77 -31.5 95.5t-101.5 18.5v-803h-356zM436 1108h85q73 0 73 159q0 103 -16 135t-60 32h-82v-326z" />
    <glyph glyph-name="Racute" unicode="&#x154;" horiz-adv-x="976" 
d="M78 0v1760h540q135 0 204 -61.5t92.5 -172t23.5 -259.5q0 -144 -36.5 -230t-137.5 -119q83 -17 116.5 -82.5t33.5 -169.5v-666h-347v689q0 77 -31.5 95.5t-101.5 18.5v-803h-356zM436 1108h85q73 0 73 159q0 103 -16 135t-60 32h-82v-326zM241 1813v223l475 218v-347z
" />
    <glyph glyph-name="Rcaron" unicode="&#x158;" horiz-adv-x="976" 
d="M78 0v1760h540q135 0 204 -61.5t92.5 -172t23.5 -259.5q0 -144 -36.5 -230t-137.5 -119q83 -17 116.5 -82.5t33.5 -169.5v-666h-347v689q0 77 -31.5 95.5t-101.5 18.5v-803h-356zM436 1108h85q73 0 73 159q0 103 -16 135t-60 32h-82v-326zM275 1851l-241 403h359l86 -285
l86 285h359l-241 -403h-408z" />
    <glyph glyph-name="uni0156" unicode="&#x156;" horiz-adv-x="976" 
d="M78 0v1760h540q135 0 204 -61.5t92.5 -172t23.5 -259.5q0 -144 -36.5 -230t-137.5 -119q83 -17 116.5 -82.5t33.5 -169.5v-666h-347v689q0 77 -31.5 95.5t-101.5 18.5v-803h-356zM436 1108h85q73 0 73 159q0 103 -16 135t-60 32h-82v-326zM376 -643l66 236h-127v298h374
v-289l-102 -245h-211z" />
    <glyph glyph-name="uni0210" unicode="&#x210;" horiz-adv-x="976" 
d="M78 0v1760h540q135 0 204 -61.5t92.5 -172t23.5 -259.5q0 -144 -36.5 -230t-137.5 -119q83 -17 116.5 -82.5t33.5 -169.5v-666h-347v689q0 77 -31.5 95.5t-101.5 18.5v-803h-356zM436 1108h85q73 0 73 159q0 103 -16 135t-60 32h-82v-326zM282 1846l-289 429l234 108
l221 -479zM584 1846l-248 429l230 108l184 -479z" />
    <glyph glyph-name="uni1E58" unicode="&#x1e58;" horiz-adv-x="976" 
d="M78 0v1760h540q135 0 204 -61.5t92.5 -172t23.5 -259.5q0 -144 -36.5 -230t-137.5 -119q83 -17 116.5 -82.5t33.5 -169.5v-666h-347v689q0 77 -31.5 95.5t-101.5 18.5v-803h-356zM436 1108h85q73 0 73 159q0 103 -16 135t-60 32h-82v-326zM300 1852v298h358v-298h-358z
" />
    <glyph glyph-name="uni1E5A" unicode="&#x1e5a;" horiz-adv-x="976" 
d="M78 0v1760h540q135 0 204 -61.5t92.5 -172t23.5 -259.5q0 -144 -36.5 -230t-137.5 -119q83 -17 116.5 -82.5t33.5 -169.5v-666h-347v689q0 77 -31.5 95.5t-101.5 18.5v-803h-356zM436 1108h85q73 0 73 159q0 103 -16 135t-60 32h-82v-326zM336 -417v298h358v-298h-358z
" />
    <glyph glyph-name="uni1E5C" unicode="&#x1e5c;" horiz-adv-x="976" 
d="M78 0v1760h540q135 0 204 -61.5t92.5 -172t23.5 -259.5q0 -144 -36.5 -230t-137.5 -119q83 -17 116.5 -82.5t33.5 -169.5v-666h-347v689q0 77 -31.5 95.5t-101.5 18.5v-803h-356zM436 1108h85q73 0 73 159q0 103 -16 135t-60 32h-82v-326zM336 -417v298h358v-298h-358z
M154 1879v153h650v-153h-650z" />
    <glyph glyph-name="uni0212" unicode="&#x212;" horiz-adv-x="976" 
d="M78 0v1760h540q135 0 204 -61.5t92.5 -172t23.5 -259.5q0 -144 -36.5 -230t-137.5 -119q83 -17 116.5 -82.5t33.5 -169.5v-666h-347v689q0 77 -31.5 95.5t-101.5 18.5v-803h-356zM436 1108h85q73 0 73 159q0 103 -16 135t-60 32h-82v-326zM108 1868q-3 20 -3 41
q0 163 98.5 237t273.5 74q180 0 277.5 -75.5t97.5 -242.5q0 -5 -0.5 -14.5t-1.5 -19.5h-236q0 68 -38 101t-97 33q-58 0 -96.5 -33t-38.5 -101h-236z" />
    <glyph glyph-name="uni1E5E" unicode="&#x1e5e;" horiz-adv-x="976" 
d="M78 0v1760h540q135 0 204 -61.5t92.5 -172t23.5 -259.5q0 -144 -36.5 -230t-137.5 -119q83 -17 116.5 -82.5t33.5 -169.5v-666h-347v689q0 77 -31.5 95.5t-101.5 18.5v-803h-356zM436 1108h85q73 0 73 159q0 103 -16 135t-60 32h-82v-326zM190 -272v153h650v-153h-650z
" />
    <glyph glyph-name="uni024C" unicode="&#x24c;" horiz-adv-x="976" 
d="M78 0v843h-78v232h78v685h540q135 0 204 -61.5t92.5 -172t23.5 -259.5q0 -144 -36.5 -230t-137.5 -119q83 -17 116.5 -82.5t33.5 -169.5v-666h-347v689q0 77 -31.5 95.5t-101.5 18.5v-803h-356zM436 1108h85q73 0 73 159q0 103 -16 135t-60 32h-82v-326z" />
    <glyph glyph-name="uni2C64" unicode="&#x2c64;" horiz-adv-x="976" 
d="M504 -196q-122 0 -218.5 48.5t-152 143.5t-55.5 236v1528h540q135 0 204 -61.5t92.5 -172t23.5 -259.5q0 -144 -36.5 -230t-137.5 -119q83 -17 116.5 -82.5t33.5 -169.5v-666h-347v689q0 77 -31.5 95.5t-101.5 18.5v-551q0 -85 20 -108.5t50 -23.5v-316zM436 1108h85
q73 0 73 159q0 103 -16 135t-60 32h-82v-326z" />
    <glyph glyph-name="S" unicode="S" horiz-adv-x="945" 
d="M496 -16q-241 0 -347.5 120t-106.5 382v172h348v-220q0 -61 18.5 -95.5t64.5 -34.5q48 0 66.5 28t18.5 92q0 81 -16 135.5t-55.5 104t-109.5 115.5l-158 150q-177 167 -177 382q0 225 104.5 343t302.5 118q242 0 343.5 -129t101.5 -392h-358v121q0 36 -20.5 56t-55.5 20
q-42 0 -61.5 -23.5t-19.5 -60.5t20 -80t79 -99l203 -195q61 -58 112 -122.5t82 -150t31 -208.5q0 -248 -91.5 -388.5t-318.5 -140.5z" />
    <glyph glyph-name="Sacute" unicode="&#x15a;" horiz-adv-x="945" 
d="M496 -16q-241 0 -347.5 120t-106.5 382v172h348v-220q0 -61 18.5 -95.5t64.5 -34.5q48 0 66.5 28t18.5 92q0 81 -16 135.5t-55.5 104t-109.5 115.5l-158 150q-177 167 -177 382q0 225 104.5 343t302.5 118q242 0 343.5 -129t101.5 -392h-358v121q0 36 -20.5 56t-55.5 20
q-42 0 -61.5 -23.5t-19.5 -60.5t20 -80t79 -99l203 -195q61 -58 112 -122.5t82 -150t31 -208.5q0 -248 -91.5 -388.5t-318.5 -140.5zM230 1813v223l475 218v-347z" />
    <glyph glyph-name="uni1E64" unicode="&#x1e64;" horiz-adv-x="945" 
d="M496 -16q-241 0 -347.5 120t-106.5 382v172h348v-220q0 -61 18.5 -95.5t64.5 -34.5q48 0 66.5 28t18.5 92q0 81 -16 135.5t-55.5 104t-109.5 115.5l-158 150q-177 167 -177 382q0 225 104.5 343t302.5 118q242 0 343.5 -129t101.5 -392h-358v121q0 36 -20.5 56t-55.5 20
q-42 0 -61.5 -23.5t-19.5 -60.5t20 -80t79 -99l203 -195q61 -58 112 -122.5t82 -150t31 -208.5q0 -248 -91.5 -388.5t-318.5 -140.5zM233 1792v193l475 168v-287zM291 2170v258h358v-258h-358z" />
    <glyph glyph-name="uniA78B" unicode="&#xa78b;" horiz-adv-x="469" 
d="M125 479l-70 1281h358l-70 -1281h-218z" />
    <glyph glyph-name="Scaron" unicode="&#x160;" horiz-adv-x="945" 
d="M496 -16q-241 0 -347.5 120t-106.5 382v172h348v-220q0 -61 18.5 -95.5t64.5 -34.5q48 0 66.5 28t18.5 92q0 81 -16 135.5t-55.5 104t-109.5 115.5l-158 150q-177 167 -177 382q0 225 104.5 343t302.5 118q242 0 343.5 -129t101.5 -392h-358v121q0 36 -20.5 56t-55.5 20
q-42 0 -61.5 -23.5t-19.5 -60.5t20 -80t79 -99l203 -195q61 -58 112 -122.5t82 -150t31 -208.5q0 -248 -91.5 -388.5t-318.5 -140.5zM264 1851l-241 403h359l86 -285l86 285h359l-241 -403h-408z" />
    <glyph glyph-name="uni1E66" unicode="&#x1e66;" horiz-adv-x="945" 
d="M291 2125v258h358v-258h-358zM324 1837l-237 255h285l99 -136l99 136h285l-237 -255h-294zM496 -16q-241 0 -347.5 120t-106.5 382v172h348v-220q0 -61 18.5 -95.5t64.5 -34.5q48 0 66.5 28t18.5 92q0 81 -16 135.5t-55.5 104t-109.5 115.5l-158 150q-177 167 -177 382
q0 225 104.5 343t302.5 118q242 0 343.5 -129t101.5 -392h-358v121q0 36 -20.5 56t-55.5 20q-42 0 -61.5 -23.5t-19.5 -60.5t20 -80t79 -99l203 -195q61 -58 112 -122.5t82 -150t31 -208.5q0 -248 -91.5 -388.5t-318.5 -140.5z" />
    <glyph glyph-name="Scedilla" unicode="&#x15e;" horiz-adv-x="945" 
d="M496 -16q-241 0 -347.5 120t-106.5 382v172h348v-220q0 -61 18.5 -95.5t64.5 -34.5q48 0 66.5 28t18.5 92q0 81 -16 135.5t-55.5 104t-109.5 115.5l-158 150q-177 167 -177 382q0 225 104.5 343t302.5 118q242 0 343.5 -129t101.5 -392h-358v121q0 36 -20.5 56t-55.5 20
q-42 0 -61.5 -23.5t-19.5 -60.5t20 -80t79 -99l203 -195q61 -58 112 -122.5t82 -150t31 -208.5q0 -248 -91.5 -388.5t-318.5 -140.5zM450 -631q-103 0 -198 40v223q31 -10 61 -16.5t57 -6.5q50 0 83.5 26.5t33.5 91.5q0 56 -27.5 128t-76.5 145h161q97 -85 150.5 -189.5
t53.5 -197.5q0 -103 -71 -173.5t-227 -70.5z" />
    <glyph glyph-name="uni018F" unicode="&#x18f;" horiz-adv-x="1000" 
d="M500 -16q-125 0 -222.5 46t-153.5 138t-56 230v492h515v429q0 73 -21 103t-62 30q-45 0 -63.5 -37t-18.5 -96v-232h-354v248q0 232 117 336.5t327 104.5q191 0 307.5 -119t116.5 -333v-812q0 -256 -101.5 -392t-330.5 -136zM500 308q49 0 66 36t17 94v182h-165v-178
q0 -79 20 -106.5t62 -27.5z" />
    <glyph glyph-name="Scircumflex" unicode="&#x15c;" horiz-adv-x="945" 
d="M496 -16q-241 0 -347.5 120t-106.5 382v172h348v-220q0 -61 18.5 -95.5t64.5 -34.5q48 0 66.5 28t18.5 92q0 81 -16 135.5t-55.5 104t-109.5 115.5l-158 150q-177 167 -177 382q0 225 104.5 343t302.5 118q242 0 343.5 -129t101.5 -392h-358v121q0 36 -20.5 56t-55.5 20
q-42 0 -61.5 -23.5t-19.5 -60.5t20 -80t79 -99l203 -195q61 -58 112 -122.5t82 -150t31 -208.5q0 -248 -91.5 -388.5t-318.5 -140.5zM23 1851l241 403h408l241 -403h-359l-86 285l-86 -285h-359z" />
    <glyph glyph-name="uni0218" unicode="&#x218;" horiz-adv-x="945" 
d="M496 -16q-241 0 -347.5 120t-106.5 382v172h348v-220q0 -61 18.5 -95.5t64.5 -34.5q48 0 66.5 28t18.5 92q0 81 -16 135.5t-55.5 104t-109.5 115.5l-158 150q-177 167 -177 382q0 225 104.5 343t302.5 118q242 0 343.5 -129t101.5 -392h-358v121q0 36 -20.5 56t-55.5 20
q-42 0 -61.5 -23.5t-19.5 -60.5t20 -80t79 -99l203 -195q61 -58 112 -122.5t82 -150t31 -208.5q0 -248 -91.5 -388.5t-318.5 -140.5zM337 -643l66 236h-127v298h374v-289l-102 -245h-211z" />
    <glyph glyph-name="uni1E60" unicode="&#x1e60;" horiz-adv-x="945" 
d="M496 -16q-241 0 -347.5 120t-106.5 382v172h348v-220q0 -61 18.5 -95.5t64.5 -34.5q48 0 66.5 28t18.5 92q0 81 -16 135.5t-55.5 104t-109.5 115.5l-158 150q-177 167 -177 382q0 225 104.5 343t302.5 118q242 0 343.5 -129t101.5 -392h-358v121q0 36 -20.5 56t-55.5 20
q-42 0 -61.5 -23.5t-19.5 -60.5t20 -80t79 -99l203 -195q61 -58 112 -122.5t82 -150t31 -208.5q0 -248 -91.5 -388.5t-318.5 -140.5zM289 1852v298h358v-298h-358z" />
    <glyph glyph-name="uni1E62" unicode="&#x1e62;" horiz-adv-x="945" 
d="M496 -16q-241 0 -347.5 120t-106.5 382v172h348v-220q0 -61 18.5 -95.5t64.5 -34.5q48 0 66.5 28t18.5 92q0 81 -16 135.5t-55.5 104t-109.5 115.5l-158 150q-177 167 -177 382q0 225 104.5 343t302.5 118q242 0 343.5 -129t101.5 -392h-358v121q0 36 -20.5 56t-55.5 20
q-42 0 -61.5 -23.5t-19.5 -60.5t20 -80t79 -99l203 -195q61 -58 112 -122.5t82 -150t31 -208.5q0 -248 -91.5 -388.5t-318.5 -140.5zM297 -417v298h358v-298h-358z" />
    <glyph glyph-name="uni1E68" unicode="&#x1e68;" horiz-adv-x="945" 
d="M496 -16q-241 0 -347.5 120t-106.5 382v172h348v-220q0 -61 18.5 -95.5t64.5 -34.5q48 0 66.5 28t18.5 92q0 81 -16 135.5t-55.5 104t-109.5 115.5l-158 150q-177 167 -177 382q0 225 104.5 343t302.5 118q242 0 343.5 -129t101.5 -392h-358v121q0 36 -20.5 56t-55.5 20
q-42 0 -61.5 -23.5t-19.5 -60.5t20 -80t79 -99l203 -195q61 -58 112 -122.5t82 -150t31 -208.5q0 -248 -91.5 -388.5t-318.5 -140.5zM297 -417v298h358v-298h-358zM289 1852v298h358v-298h-358z" />
    <glyph glyph-name="Sigma" unicode="&#x3a3;" horiz-adv-x="836" 
d="M62 -119v268l337 673l-337 633v305h717v-316h-392l305 -578v-76l-305 -614h408v-295h-733z" />
    <glyph glyph-name="uniA7A8" unicode="&#xa7a8;" horiz-adv-x="945" 
d="M496 -16q-241 0 -347.5 120t-106.5 382v172h348v-220q0 -61 18.5 -95.5t64.5 -34.5q48 0 66.5 28t18.5 92q0 81 -16 135.5t-55.5 104t-109.5 115.5l-24 22l-290 -69v246l91 22q-112 139 -112 311q0 225 104.5 343t302.5 118q242 0 343.5 -129t101.5 -392h-358v121
q0 36 -20.5 56t-55.5 20q-42 0 -61.5 -23.5t-19.5 -60.5t20 -80t79 -99l90 -86l307 73v-246l-108 -26q60 -71 99.5 -162t39.5 -229q0 -248 -91.5 -388.5t-318.5 -140.5z" />
    <glyph glyph-name="T" unicode="T" horiz-adv-x="810" 
d="M229 0v1422h-209v338h770v-338h-209v-1422h-352z" />
    <glyph glyph-name="T_h" horiz-adv-x="1845" 
d="M229 0v1422h-209v338h770v-338h-209v-1422h-352zM882 0v1760h368v-409q29 84 89 124.5t140 40.5q156 0 227 -98t71 -263v-1155h-362v1132q0 49 -20.5 80t-64.5 31q-37 0 -58.5 -32t-21.5 -76v-1135h-368z" />
    <glyph glyph-name="Tbar" unicode="&#x166;" horiz-adv-x="810" 
d="M790 1760v-338h-209v-437h146v-233h-146v-752h-352v752h-152v233h152v437h-209v338h770z" />
    <glyph glyph-name="Tcaron" unicode="&#x164;" horiz-adv-x="810" 
d="M229 0v1422h-209v338h770v-338h-209v-1422h-352zM201 1851l-241 403h359l86 -285l86 285h359l-241 -403h-408z" />
    <glyph glyph-name="uni0162" unicode="&#x162;" horiz-adv-x="810" 
d="M229 0v1422h-209v338h770v-338h-209v-1422h-352zM376 -631q-103 0 -198 40v223q31 -10 61 -16.5t57 -6.5q50 0 83.5 26.5t33.5 91.5q0 56 -27.5 128t-76.5 145h161q97 -85 150.5 -189.5t53.5 -197.5q0 -103 -71 -173.5t-227 -70.5z" />
    <glyph glyph-name="uni1E70" unicode="&#x1e70;" horiz-adv-x="810" 
d="M229 0v1422h-209v338h770v-338h-209v-1422h-352zM-40 -512l241 403h408l241 -403h-359l-86 285l-86 -285h-359z" />
    <glyph glyph-name="uni021A" unicode="&#x21a;" horiz-adv-x="810" 
d="M229 0v1422h-209v338h770v-338h-209v-1422h-352zM286 -643l66 236h-127v298h374v-289l-102 -245h-211z" />
    <glyph glyph-name="uni023E" unicode="&#x23e;" horiz-adv-x="810" 
d="M6 -186l220 852h3v756h-209v338h537l62 240h140l-62 -240h93v-338h-209v-1422h-352v135l-83 -321h-140z" />
    <glyph glyph-name="uni1E6A" unicode="&#x1e6a;" horiz-adv-x="810" 
d="M229 0v1422h-209v338h770v-338h-209v-1422h-352zM226 1852v298h358v-298h-358z" />
    <glyph glyph-name="uni1E6C" unicode="&#x1e6c;" horiz-adv-x="810" 
d="M229 0v1422h-209v338h770v-338h-209v-1422h-352zM226 -417v298h358v-298h-358z" />
    <glyph glyph-name="uni01AC" unicode="&#x1ac;" horiz-adv-x="1000" 
d="M419 0v1422h-1q-60 0 -88 -36t-28 -116v-18h-307v60q0 131 46.5 232t140 158.5t234.5 57.5h564v-338h-209v-1422h-352z" />
    <glyph glyph-name="Thorn" unicode="&#xde;" horiz-adv-x="947" 
d="M62 0v1760h345v-244h120q154 0 239 -69.5t118.5 -192t33.5 -281.5q0 -153 -28 -275t-107 -193t-232 -71h-143v-434h-346zM408 721h20q82 0 112 49t30 197q0 77 -7 135.5t-32.5 91t-83.5 32.5h-39v-505z" />
    <glyph glyph-name="uni1E6E" unicode="&#x1e6e;" horiz-adv-x="810" 
d="M229 0v1422h-209v338h770v-338h-209v-1422h-352zM80 -272v153h650v-153h-650z" />
    <glyph glyph-name="uni01AE" unicode="&#x1ae;" horiz-adv-x="810" 
d="M651 -196q-184 0 -303 108.5t-119 319.5v1190h-209v338h770v-338h-209v-1170q0 -85 20 -108.5t50 -23.5v-316z" />
    <glyph glyph-name="U" unicode="U" horiz-adv-x="970" 
d="M485 -16q-220 0 -324 123.5t-104 363.5v1289h342v-1275q0 -44 5 -84.5t23 -66.5t58 -26q41 0 59 25.5t22.5 66.5t4.5 85v1275h342v-1289q0 -240 -104 -363.5t-324 -123.5z" />
    <glyph glyph-name="Uacute" unicode="&#xda;" horiz-adv-x="970" 
d="M485 -16q-220 0 -324 123.5t-104 363.5v1289h342v-1275q0 -44 5 -84.5t23 -66.5t58 -26q41 0 59 25.5t22.5 66.5t4.5 85v1275h342v-1289q0 -240 -104 -363.5t-324 -123.5zM247 1813v223l475 218v-347z" />
    <glyph glyph-name="uni0244" unicode="&#x244;" horiz-adv-x="1040" 
d="M520 -16q-220 0 -324 123.5t-104 363.5v441h-102v220h102v628h342v-628h172v628h342v-628h102v-220h-102v-441q0 -240 -104 -363.5t-324 -123.5zM434 485q0 -44 5 -84.5t23 -66.5t58 -26q41 0 59 25.5t22.5 66.5t4.5 85v427h-172v-427z" />
    <glyph glyph-name="Ubreve" unicode="&#x16c;" horiz-adv-x="970" 
d="M485 -16q-220 0 -324 123.5t-104 363.5v1289h342v-1275q0 -44 5 -84.5t23 -66.5t58 -26q41 0 59 25.5t22.5 66.5t4.5 85v1275h342v-1289q0 -240 -104 -363.5t-324 -123.5zM488 1852q-175 0 -283.5 74t-108.5 237q0 21 3 42h256q0 -57 29 -86.5t106 -29.5t106 29.5
t29 86.5h256q1 -10 1.5 -20t0.5 -15q0 -167 -107.5 -242.5t-287.5 -75.5z" />
    <glyph glyph-name="uni01D3" unicode="&#x1d3;" horiz-adv-x="970" 
d="M485 -16q-220 0 -324 123.5t-104 363.5v1289h342v-1275q0 -44 5 -84.5t23 -66.5t58 -26q41 0 59 25.5t22.5 66.5t4.5 85v1275h342v-1289q0 -240 -104 -363.5t-324 -123.5zM281 1851l-241 403h359l86 -285l86 285h359l-241 -403h-408z" />
    <glyph glyph-name="Ucircumflex" unicode="&#xdb;" horiz-adv-x="970" 
d="M485 -16q-220 0 -324 123.5t-104 363.5v1289h342v-1275q0 -44 5 -84.5t23 -66.5t58 -26q41 0 59 25.5t22.5 66.5t4.5 85v1275h342v-1289q0 -240 -104 -363.5t-324 -123.5zM40 1851l241 403h408l241 -403h-359l-86 285l-86 -285h-359z" />
    <glyph glyph-name="uni1E76" unicode="&#x1e76;" horiz-adv-x="970" 
d="M485 -16q-220 0 -324 123.5t-104 363.5v1289h342v-1275q0 -44 5 -84.5t23 -66.5t58 -26q41 0 59 25.5t22.5 66.5t4.5 85v1275h342v-1289q0 -240 -104 -363.5t-324 -123.5zM40 -512l241 403h408l241 -403h-359l-86 285l-86 -285h-359z" />
    <glyph glyph-name="uni0214" unicode="&#x214;" horiz-adv-x="970" 
d="M485 -16q-220 0 -324 123.5t-104 363.5v1289h342v-1275q0 -44 5 -84.5t23 -66.5t58 -26q41 0 59 25.5t22.5 66.5t4.5 85v1275h342v-1289q0 -240 -104 -363.5t-324 -123.5zM288 1846l-289 429l234 108l221 -479zM590 1846l-248 429l230 108l184 -479z" />
    <glyph glyph-name="Udieresis" unicode="&#xdc;" horiz-adv-x="970" 
d="M485 -16q-220 0 -324 123.5t-104 363.5v1289h342v-1275q0 -44 5 -84.5t23 -66.5t58 -26q41 0 59 25.5t22.5 66.5t4.5 85v1275h342v-1289q0 -240 -104 -363.5t-324 -123.5zM541 1859v298h358v-298h-358zM57 1859v298h358v-298h-358z" />
    <glyph glyph-name="uni01D7" unicode="&#x1d7;" horiz-adv-x="970" 
d="M485 -16q-220 0 -324 123.5t-104 363.5v1289h342v-1275q0 -44 5 -84.5t23 -66.5t58 -26q41 0 59 25.5t22.5 66.5t4.5 85v1275h342v-1289q0 -240 -104 -363.5t-324 -123.5zM548 1859v248h358v-248h-358zM64 1859v248h358v-248h-358zM248 2194v193l475 168v-287z" />
    <glyph glyph-name="uni1E72" unicode="&#x1e72;" horiz-adv-x="970" 
d="M485 -16q-220 0 -324 123.5t-104 363.5v1289h342v-1275q0 -44 5 -84.5t23 -66.5t58 -26q41 0 59 25.5t22.5 66.5t4.5 85v1275h342v-1289q0 -240 -104 -363.5t-324 -123.5zM548 -417v298h358v-298h-358zM64 -417v298h358v-298h-358z" />
    <glyph glyph-name="uni01D9" unicode="&#x1d9;" horiz-adv-x="970" 
d="M338 2204l-237 255h285l99 -136l99 136h285l-237 -255h-294zM548 1857v248h358v-248h-358zM64 1857v248h358v-248h-358zM485 -16q-220 0 -324 123.5t-104 363.5v1289h342v-1275q0 -44 5 -84.5t23 -66.5t58 -26q41 0 59 25.5t22.5 66.5t4.5 85v1275h342v-1289
q0 -240 -104 -363.5t-324 -123.5z" />
    <glyph glyph-name="uni01DB" unicode="&#x1db;" horiz-adv-x="970" 
d="M485 -16q-220 0 -324 123.5t-104 363.5v1289h342v-1275q0 -44 5 -84.5t23 -66.5t58 -26q41 0 59 25.5t22.5 66.5t4.5 85v1275h342v-1289q0 -240 -104 -363.5t-324 -123.5zM548 1859v248h358v-248h-358zM64 1859v248h358v-248h-358zM722 2194l-475 74v287l475 -168v-193z
" />
    <glyph glyph-name="uni01D5" unicode="&#x1d5;" horiz-adv-x="970" 
d="M485 -16q-220 0 -324 123.5t-104 363.5v1289h342v-1275q0 -44 5 -84.5t23 -66.5t58 -26q41 0 59 25.5t22.5 66.5t4.5 85v1275h342v-1289q0 -240 -104 -363.5t-324 -123.5zM548 1859v248h358v-248h-358zM64 1859v248h358v-248h-358zM160 2216v153h650v-153h-650z" />
    <glyph glyph-name="uni1EE4" unicode="&#x1ee4;" horiz-adv-x="970" 
d="M485 -16q-220 0 -324 123.5t-104 363.5v1289h342v-1275q0 -44 5 -84.5t23 -66.5t58 -26q41 0 59 25.5t22.5 66.5t4.5 85v1275h342v-1289q0 -240 -104 -363.5t-324 -123.5zM306 -417v298h358v-298h-358z" />
    <glyph glyph-name="Ugrave" unicode="&#xd9;" horiz-adv-x="970" 
d="M485 -16q-220 0 -324 123.5t-104 363.5v1289h342v-1275q0 -44 5 -84.5t23 -66.5t58 -26q41 0 59 25.5t22.5 66.5t4.5 85v1275h342v-1289q0 -240 -104 -363.5t-324 -123.5zM722 1813l-475 94v347l475 -218v-223z" />
    <glyph glyph-name="uni1EE6" unicode="&#x1ee6;" horiz-adv-x="970" 
d="M485 -16q-220 0 -324 123.5t-104 363.5v1289h342v-1275q0 -44 5 -84.5t23 -66.5t58 -26q41 0 59 25.5t22.5 66.5t4.5 85v1275h342v-1289q0 -240 -104 -363.5t-324 -123.5zM456 1837l-106 124q54 20 87 50t33 80q0 95 -101 95q-47 0 -90 -16v180q88 33 183 33
q125 0 195.5 -62.5t70.5 -175.5q0 -127 -78 -199.5t-194 -108.5z" />
    <glyph glyph-name="Uhorn" unicode="&#x1af;" horiz-adv-x="1083" 
d="M485 -16q-220 0 -324 123.5t-104 363.5v1289h342v-1275q0 -44 5 -84.5t23 -66.5t58 -26q41 0 59 25.5t22.5 66.5t4.5 85v1275h129q115 0 115 125v23h278v-15q0 -131 -50 -207t-130 -109v-1106q0 -240 -104 -363.5t-324 -123.5z" />
    <glyph glyph-name="uni1EE8" unicode="&#x1ee8;" horiz-adv-x="1083" 
d="M485 -16q-220 0 -324 123.5t-104 363.5v1289h342v-1275q0 -44 5 -84.5t23 -66.5t58 -26q41 0 59 25.5t22.5 66.5t4.5 85v1275h129q115 0 115 125v23h278v-15q0 -131 -50 -207t-130 -109v-1106q0 -240 -104 -363.5t-324 -123.5zM248 1797v193l475 168v-287z" />
    <glyph glyph-name="uni1EF0" unicode="&#x1ef0;" horiz-adv-x="1083" 
d="M485 -16q-220 0 -324 123.5t-104 363.5v1289h342v-1275q0 -44 5 -84.5t23 -66.5t58 -26q41 0 59 25.5t22.5 66.5t4.5 85v1275h129q115 0 115 125v23h278v-15q0 -131 -50 -207t-130 -109v-1106q0 -240 -104 -363.5t-324 -123.5zM306 -417v298h358v-298h-358z" />
    <glyph glyph-name="uni1EEA" unicode="&#x1eea;" horiz-adv-x="1083" 
d="M485 -16q-220 0 -324 123.5t-104 363.5v1289h342v-1275q0 -44 5 -84.5t23 -66.5t58 -26q41 0 59 25.5t22.5 66.5t4.5 85v1275h129q115 0 115 125v23h278v-15q0 -131 -50 -207t-130 -109v-1106q0 -240 -104 -363.5t-324 -123.5zM722 1797l-475 74v287l475 -168v-193z" />
    <glyph glyph-name="uni1EEC" unicode="&#x1eec;" horiz-adv-x="1083" 
d="M485 -16q-220 0 -324 123.5t-104 363.5v1289h342v-1275q0 -44 5 -84.5t23 -66.5t58 -26q41 0 59 25.5t22.5 66.5t4.5 85v1275h129q115 0 115 125v23h278v-15q0 -131 -50 -207t-130 -109v-1106q0 -240 -104 -363.5t-324 -123.5zM456 1837l-106 124q54 20 87 50t33 80
q0 95 -101 95q-47 0 -90 -16v180q88 33 183 33q125 0 195.5 -62.5t70.5 -175.5q0 -127 -78 -199.5t-194 -108.5z" />
    <glyph glyph-name="uni1EEE" unicode="&#x1eee;" horiz-adv-x="1083" 
d="M600 1841q-74 0 -123 23t-86.5 45.5t-78.5 22.5q-26 0 -49 -15t-43 -53l-148 78q25 55 54.5 101t75 74t117.5 28q71 0 116.5 -21t80.5 -42t73 -21q27 0 50 17t43 58l166 -54q-24 -62 -53 -117.5t-74.5 -89.5t-120.5 -34zM485 -16q-220 0 -324 123.5t-104 363.5v1289h342
v-1275q0 -44 5 -84.5t23 -66.5t58 -26q41 0 59 25.5t22.5 66.5t4.5 85v1275h129q115 0 115 125v23h278v-15q0 -131 -50 -207t-130 -109v-1106q0 -240 -104 -363.5t-324 -123.5z" />
    <glyph glyph-name="Uhungarumlaut" unicode="&#x170;" horiz-adv-x="970" 
d="M485 -16q-220 0 -324 123.5t-104 363.5v1289h342v-1275q0 -44 5 -84.5t23 -66.5t58 -26q41 0 59 25.5t22.5 66.5t4.5 85v1275h342v-1289q0 -240 -104 -363.5t-324 -123.5zM714 1866l-166 58l221 479l234 -108zM412 1866l-166 58l184 479l230 -108z" />
    <glyph glyph-name="uni0216" unicode="&#x216;" horiz-adv-x="970" 
d="M485 -16q-220 0 -324 123.5t-104 363.5v1289h342v-1275q0 -44 5 -84.5t23 -66.5t58 -26q41 0 59 25.5t22.5 66.5t4.5 85v1275h342v-1289q0 -240 -104 -363.5t-324 -123.5zM114 1868q-3 20 -3 41q0 163 98.5 237t273.5 74q180 0 277.5 -75.5t97.5 -242.5q0 -5 -0.5 -14.5
t-1.5 -19.5h-236q0 68 -38 101t-97 33q-58 0 -96.5 -33t-38.5 -101h-236z" />
    <glyph glyph-name="Umacron" unicode="&#x16a;" horiz-adv-x="970" 
d="M485 -16q-220 0 -324 123.5t-104 363.5v1289h342v-1275q0 -44 5 -84.5t23 -66.5t58 -26q41 0 59 25.5t22.5 66.5t4.5 85v1275h342v-1289q0 -240 -104 -363.5t-324 -123.5zM156 1879v153h650v-153h-650z" />
    <glyph glyph-name="uni1E7A" unicode="&#x1e7a;" horiz-adv-x="970" 
d="M485 -16q-220 0 -324 123.5t-104 363.5v1289h342v-1275q0 -44 5 -84.5t23 -66.5t58 -26q41 0 59 25.5t22.5 66.5t4.5 85v1275h342v-1289q0 -240 -104 -363.5t-324 -123.5zM160 1878v153h650v-153h-650zM548 2129v248h358v-248h-358zM64 2129v248h358v-248h-358z" />
    <glyph glyph-name="Uogonek" unicode="&#x172;" horiz-adv-x="970" 
d="M485 -16q-220 0 -324 123.5t-104 363.5v1289h342v-1275q0 -44 5 -84.5t23 -66.5t58 -26q41 0 59 25.5t22.5 66.5t4.5 85v1275h342v-1289q0 -240 -104 -363.5t-324 -123.5zM492 -631q-95 0 -174 36t-126.5 103.5t-47.5 161.5q0 182 264 330h211q-56 -58 -108 -127
t-52 -152q0 -112 115 -112q49 0 116 23v-223q-95 -40 -198 -40z" />
    <glyph glyph-name="uni01B1" unicode="&#x1b1;" horiz-adv-x="992" 
d="M496 -16q-208 0 -316 106.5t-108 311.5v556q0 316 97 464h-122v338h416v-339q-22 -17 -33 -45t-15 -93.5t-4 -195.5v-707q0 -52 16.5 -88t68.5 -36t68.5 36t16.5 88v707q0 130 -4 195.5t-15 93.5t-33 45v339h416v-338h-122q97 -148 97 -464v-556q0 -205 -107.5 -311.5
t-316.5 -106.5z" />
    <glyph glyph-name="Uring" unicode="&#x16e;" horiz-adv-x="970" 
d="M485 -16q-220 0 -324 123.5t-104 363.5v1289h342v-1275q0 -44 5 -84.5t23 -66.5t58 -26q41 0 59 25.5t22.5 66.5t4.5 85v1275h342v-1289q0 -240 -104 -363.5t-324 -123.5zM484 1840q-160 0 -256.5 89.5t-96.5 248.5q0 158 96.5 248t256.5 90q161 0 257.5 -90t96.5 -248
t-96.5 -248t-257.5 -90zM485 2021q67 0 104.5 46t37.5 111t-37.5 111t-104.5 46t-104.5 -46t-37.5 -111t37.5 -111t104.5 -46z" />
    <glyph glyph-name="Utilde" unicode="&#x168;" horiz-adv-x="970" 
d="M485 -16q-220 0 -324 123.5t-104 363.5v1289h342v-1275q0 -44 5 -84.5t23 -66.5t58 -26q41 0 59 25.5t22.5 66.5t4.5 85v1275h342v-1289q0 -240 -104 -363.5t-324 -123.5zM650 1871q-74 0 -135.5 23t-111.5 45.5t-91 22.5q-26 0 -49 -15t-43 -53l-148 78
q25 61 54.5 111.5t75.5 81t117 30.5t128.5 -21t105 -42t86.5 -21q27 0 50 17t43 58l166 -54q-24 -67 -53 -127t-74.5 -97t-120.5 -37z" />
    <glyph glyph-name="uni1E78" unicode="&#x1e78;" horiz-adv-x="970" 
d="M485 -16q-220 0 -324 123.5t-104 363.5v1289h342v-1275q0 -44 5 -84.5t23 -66.5t58 -26q41 0 59 25.5t22.5 66.5t4.5 85v1275h342v-1289q0 -240 -104 -363.5t-324 -123.5zM650 1841q-74 0 -135.5 23t-111.5 45.5t-91 22.5q-26 0 -49 -15t-43 -53l-148 78q25 55 54.5 101
t75.5 74t117 28t129.5 -21t105.5 -42t85 -21q27 0 50 17t43 58l166 -54q-24 -62 -53 -117.5t-74.5 -89.5t-120.5 -34zM248 2204v193l475 168v-287z" />
    <glyph glyph-name="uni1E74" unicode="&#x1e74;" horiz-adv-x="970" 
d="M485 -16q-220 0 -324 123.5t-104 363.5v1289h342v-1275q0 -44 5 -84.5t23 -66.5t58 -26q41 0 59 25.5t22.5 66.5t4.5 85v1275h342v-1289q0 -240 -104 -363.5t-324 -123.5zM650 -435q-74 0 -135.5 23t-111.5 45.5t-91 22.5q-26 0 -49 -15t-43 -53l-148 78
q25 61 54.5 111.5t75.5 81t117 30.5t128.5 -21t105 -42t86.5 -21q27 0 50 17t43 58l166 -54q-24 -67 -53 -127t-74.5 -97t-120.5 -37z" />
    <glyph glyph-name="V" unicode="V" horiz-adv-x="961" 
d="M240 0l-217 1761h335l129 -1198l115 1198h335l-217 -1761h-480z" />
    <glyph glyph-name="uni1E7E" unicode="&#x1e7e;" horiz-adv-x="961" 
d="M240 0l-217 1761h335l129 -1198l115 1198h335l-217 -1761h-480zM302 -417v298h358v-298h-358z" />
    <glyph glyph-name="uni01B2" unicode="&#x1b2;" horiz-adv-x="911" 
d="M239 0l-216 1749h334l128 -1189l79 807q1 6 1 12v11q0 71 -64 71v301q196 0 291 -79.5t95 -261.5q0 -49 -8 -115l-162 -1306h-478z" />
    <glyph glyph-name="uni1E7C" unicode="&#x1e7c;" horiz-adv-x="961" 
d="M240 0l-217 1761h335l129 -1198l115 1198h335l-217 -1761h-480zM646 1871q-77 0 -136 23t-107.5 45.5t-94.5 22.5q-26 0 -49 -15t-43 -53l-148 78q25 61 54.5 111.5t75.5 81t117 30.5q74 0 131 -21t103.5 -42t85.5 -21q27 0 50 17t43 58l166 -54q-24 -67 -53 -127
t-74.5 -97t-120.5 -37z" />
    <glyph glyph-name="uni0245" unicode="&#x245;" horiz-adv-x="961" 
d="M721 1760l217 -1761h-335l-129 1198l-115 -1198h-335l217 1761h480z" />
    <glyph glyph-name="W" unicode="W" horiz-adv-x="1458" 
d="M216 0l-189 1760h344l97 -1111l99 1111h328l94 -1111l94 1111h348l-192 -1760h-422l-88 847l-84 -847h-429z" />
    <glyph glyph-name="Wacute" unicode="&#x1e82;" horiz-adv-x="1458" 
d="M216 0l-189 1760h344l97 -1111l99 1111h328l94 -1111l94 1111h348l-192 -1760h-422l-88 847l-84 -847h-429zM505 1813v223l475 218v-347z" />
    <glyph glyph-name="Wcircumflex" unicode="&#x174;" horiz-adv-x="1458" 
d="M216 0l-189 1760h344l97 -1111l99 1111h328l94 -1111l94 1111h348l-192 -1760h-422l-88 847l-84 -847h-429zM298 1851l241 403h408l241 -403h-359l-86 285l-86 -285h-359z" />
    <glyph glyph-name="Wdieresis" unicode="&#x1e84;" horiz-adv-x="1458" 
d="M216 0l-189 1760h344l97 -1111l99 1111h328l94 -1111l94 1111h348l-192 -1760h-422l-88 847l-84 -847h-429zM799 1859v298h358v-298h-358zM315 1859v298h358v-298h-358z" />
    <glyph glyph-name="uni1E86" unicode="&#x1e86;" horiz-adv-x="1458" 
d="M216 0l-189 1760h344l97 -1111l99 1111h328l94 -1111l94 1111h348l-192 -1760h-422l-88 847l-84 -847h-429zM564 1852v298h358v-298h-358z" />
    <glyph glyph-name="uni1E88" unicode="&#x1e88;" horiz-adv-x="1458" 
d="M216 0l-189 1760h344l97 -1111l99 1111h328l94 -1111l94 1111h348l-192 -1760h-422l-88 847l-84 -847h-429zM550 -417v298h358v-298h-358z" />
    <glyph glyph-name="Wgrave" unicode="&#x1e80;" horiz-adv-x="1458" 
d="M216 0l-189 1760h344l97 -1111l99 1111h328l94 -1111l94 1111h348l-192 -1760h-422l-88 847l-84 -847h-429zM980 1813l-475 94v347l475 -218v-223z" />
    <glyph glyph-name="uni2C72" unicode="&#x2c72;" horiz-adv-x="1495" 
d="M215 0l-189 1760h345l98 -1113l99 1113h329l95 -1113l64 770q16 187 119.5 272.5t329.5 85.5v-304q-70 0 -90.5 -37.5t-29.5 -118.5l-143 -1315h-423l-89 846l-84 -846h-431z" />
    <glyph glyph-name="X" unicode="X" horiz-adv-x="991" 
d="M27 0l189 933l-150 828h344l91 -605l81 605h345l-150 -828l188 -933h-356l-111 688l-114 -688h-357z" />
    <glyph glyph-name="uni1E8C" unicode="&#x1e8c;" horiz-adv-x="991" 
d="M27 0l189 933l-150 828h344l91 -605l81 605h345l-150 -828l188 -933h-356l-111 688l-114 -688h-357zM552 1859v298h358v-298h-358zM68 1859v298h358v-298h-358z" />
    <glyph glyph-name="uni1E8A" unicode="&#x1e8a;" horiz-adv-x="991" 
d="M27 0l189 933l-150 828h344l91 -605l81 605h345l-150 -828l188 -933h-356l-111 688l-114 -688h-357zM317 1852v298h358v-298h-358z" />
    <glyph glyph-name="Y" unicode="Y" horiz-adv-x="914" 
d="M291 0v579l-281 1181h349l98 -596l98 596h348l-280 -1181v-579h-332z" />
    <glyph glyph-name="Yacute" unicode="&#xdd;" horiz-adv-x="914" 
d="M291 0v579l-281 1181h349l98 -596l98 596h348l-280 -1181v-579h-332zM218 1813v223l475 218v-347z" />
    <glyph glyph-name="Ycircumflex" unicode="&#x176;" horiz-adv-x="914" 
d="M291 0v579l-281 1181h349l98 -596l98 596h348l-280 -1181v-579h-332zM11 1851l241 403h408l241 -403h-359l-86 285l-86 -285h-359z" />
    <glyph glyph-name="Ydieresis" unicode="&#x178;" horiz-adv-x="914" 
d="M291 0v579l-281 1181h349l98 -596l98 596h348l-280 -1181v-579h-332zM512 1859v298h358v-298h-358zM28 1859v298h358v-298h-358z" />
    <glyph glyph-name="uni1E8E" unicode="&#x1e8e;" horiz-adv-x="914" 
d="M291 0v579l-281 1181h349l98 -596l98 596h348l-280 -1181v-579h-332zM277 1852v258h358v-258h-358z" />
    <glyph glyph-name="uni1EF4" unicode="&#x1ef4;" horiz-adv-x="914" 
d="M291 0v579l-281 1181h349l98 -596l98 596h348l-280 -1181v-579h-332zM278 -417v298h358v-298h-358z" />
    <glyph glyph-name="Ygrave" unicode="&#x1ef2;" horiz-adv-x="914" 
d="M291 0v579l-281 1181h349l98 -596l98 596h348l-280 -1181v-579h-332zM693 1813l-475 94v347l475 -218v-223z" />
    <glyph glyph-name="uni01B3" unicode="&#x1b3;" horiz-adv-x="934" 
d="M289 0v589l-279 1171h349l98 -595l42 255q21 123 68 201.5t137.5 115.5t239.5 37v-301q-69 0 -97.5 -37t-48.5 -117l-175 -730v-589h-334z" />
    <glyph glyph-name="uni1EF6" unicode="&#x1ef6;" horiz-adv-x="914" 
d="M291 0v579l-281 1181h349l98 -596l98 596h348l-280 -1181v-579h-332zM427 1837l-106 124q54 20 87 50t33 80q0 95 -101 95q-47 0 -90 -16v180q88 33 183 33q125 0 195.5 -62.5t70.5 -175.5q0 -127 -78 -199.5t-194 -108.5z" />
    <glyph glyph-name="uni0232" unicode="&#x232;" horiz-adv-x="914" 
d="M291 0v579l-281 1181h349l98 -596l98 596h348l-280 -1181v-579h-332zM132 1879v153h650v-153h-650z" />
    <glyph glyph-name="uni024E" unicode="&#x24e;" horiz-adv-x="913" 
d="M291 0v579l-121 507h-154v220h102l-108 454h349l98 -596l98 596h348l-108 -454h102v-220h-154l-120 -507v-579h-332z" />
    <glyph glyph-name="uni1EF8" unicode="&#x1ef8;" horiz-adv-x="914" 
d="M291 0v579l-281 1181h349l98 -596l98 596h348l-280 -1181v-579h-332zM621 1871q-74 0 -135.5 23t-111.5 45.5t-91 22.5q-26 0 -49 -15t-43 -53l-148 78q25 61 54.5 111.5t75.5 81t117 30.5t128.5 -21t105 -42t86.5 -21q27 0 50 17t43 58l166 -54q-24 -67 -53 -127
t-74.5 -97t-120.5 -37z" />
    <glyph glyph-name="Z" unicode="Z" horiz-adv-x="840" 
d="M32 0v320l403 1116h-364v324h735v-308l-410 -1128h393v-324h-757z" />
    <glyph glyph-name="Zacute" unicode="&#x179;" horiz-adv-x="840" 
d="M32 0v320l403 1116h-364v324h735v-308l-410 -1128h393v-324h-757zM201 1813v223l475 218v-347z" />
    <glyph glyph-name="Zcaron" unicode="&#x17d;" horiz-adv-x="840" 
d="M32 0v320l403 1116h-364v324h735v-308l-410 -1128h393v-324h-757zM235 1851l-241 403h359l86 -285l86 285h359l-241 -403h-408z" />
    <glyph glyph-name="uni1E90" unicode="&#x1e90;" horiz-adv-x="840" 
d="M32 0v320l403 1116h-364v324h735v-308l-410 -1128h393v-324h-757zM-6 1851l241 403h408l241 -403h-359l-86 285l-86 -285h-359z" />
    <glyph glyph-name="Zdotaccent" unicode="&#x17b;" horiz-adv-x="840" 
d="M32 0v320l403 1116h-364v324h735v-308l-410 -1128h393v-324h-757zM260 1852v298h358v-298h-358z" />
    <glyph glyph-name="uni1E92" unicode="&#x1e92;" horiz-adv-x="840" 
d="M32 0v320l403 1116h-364v324h735v-308l-410 -1128h393v-324h-757zM241 -417v298h358v-298h-358z" />
    <glyph glyph-name="uni1E94" unicode="&#x1e94;" horiz-adv-x="840" 
d="M32 0v320l403 1116h-364v324h735v-308l-410 -1128h393v-324h-757zM95 -272v153h650v-153h-650z" />
    <glyph glyph-name="uni01B5" unicode="&#x1b5;" horiz-adv-x="840" 
d="M32 0v320l167 462h-104v232h188l152 422h-364v324h735v-308l-159 -438h108v-232h-193l-166 -458h393v-324h-757z" />
    <glyph glyph-name="a" unicode="a" horiz-adv-x="990" 
d="M345 -16q-125 0 -190.5 58t-89.5 159t-24 229q0 137 27 224.5t92.5 143.5t180.5 95l222 76v154q0 121 -79 121q-72 0 -72 -98v-90h-348q-1 8 -1 20.5v28.5q0 224 105.5 317.5t334.5 93.5q120 0 215 -42.5t150.5 -125.5t55.5 -205v-1143h-356v178q-26 -94 -86 -144
t-137 -50zM486 262q44 0 60 37t16 80v418q-74 -30 -115 -75.5t-41 -133.5v-193q0 -133 80 -133z" />
    <glyph glyph-name="a.sc" horiz-adv-x="994" 
d="M30 0l170 1560h597l167 -1560h-333l-23 284h-216l-20 -284h-342zM486 1280l-65 -715h154l-73 715h-16z" />
    <glyph glyph-name="aacute" unicode="&#xe1;" horiz-adv-x="990" 
d="M345 -16q-125 0 -190.5 58t-89.5 159t-24 229q0 137 27 224.5t92.5 143.5t180.5 95l222 76v154q0 121 -79 121q-72 0 -72 -98v-90h-348q-1 8 -1 20.5v28.5q0 224 105.5 317.5t334.5 93.5q120 0 215 -42.5t150.5 -125.5t55.5 -205v-1143h-356v178q-26 -94 -86 -144
t-137 -50zM486 262q44 0 60 37t16 80v418q-74 -30 -115 -75.5t-41 -133.5v-193q0 -133 80 -133zM265 1569v223l475 218v-347z" />
    <glyph glyph-name="aacute.sc" horiz-adv-x="994" 
d="M30 0l170 1560h597l167 -1560h-333l-23 284h-216l-20 -284h-342zM486 1280l-65 -715h154l-73 715h-16zM260 1627v193l475 168v-287z" />
    <glyph glyph-name="abreve" unicode="&#x103;" horiz-adv-x="990" 
d="M345 -16q-125 0 -190.5 58t-89.5 159t-24 229q0 137 27 224.5t92.5 143.5t180.5 95l222 76v154q0 121 -79 121q-72 0 -72 -98v-90h-348q-1 8 -1 20.5v28.5q0 224 105.5 317.5t334.5 93.5q120 0 215 -42.5t150.5 -125.5t55.5 -205v-1143h-356v178q-26 -94 -86 -144
t-137 -50zM486 262q44 0 60 37t16 80v418q-74 -30 -115 -75.5t-41 -133.5v-193q0 -133 80 -133zM506 1608q-175 0 -283.5 74t-108.5 237q0 21 3 42h256q0 -57 29 -86.5t106 -29.5t106 29.5t29 86.5h256q1 -10 1.5 -20t0.5 -15q0 -167 -107.5 -242.5t-287.5 -75.5z" />
    <glyph glyph-name="abreve.sc" horiz-adv-x="994" 
d="M30 0l170 1560h597l167 -1560h-333l-23 284h-216l-20 -284h-342zM486 1280l-65 -715h154l-73 715h-16zM496 1682q-175 0 -283.5 67t-108.5 214q0 21 3 42h256q0 -62 29 -94t106 -32t106 32t29 94h256q2 -24 2 -35q0 -151 -107.5 -219.5t-287.5 -68.5z" />
    <glyph glyph-name="uni1EAF" unicode="&#x1eaf;" horiz-adv-x="990" 
d="M345 -16q-125 0 -190.5 58t-89.5 159t-24 229q0 137 27 224.5t92.5 143.5t180.5 95l222 76v154q0 121 -79 121q-72 0 -72 -98v-90h-348q-1 8 -1 20.5v28.5q0 224 105.5 317.5t334.5 93.5q120 0 215 -42.5t150.5 -125.5t55.5 -205v-1143h-356v178q-26 -94 -86 -144
t-137 -50zM486 262q44 0 60 37t16 80v418q-74 -30 -115 -75.5t-41 -133.5v-193q0 -133 80 -133zM502 1592q-175 0 -283.5 67t-108.5 214q0 21 3 42h256q0 -62 29 -94t106 -32t106 32t29 94h256q2 -24 2 -35q0 -151 -107.5 -219.5t-287.5 -68.5zM267 1951v193l475 168v-287z
" />
    <glyph glyph-name="uni1EAF.sc" horiz-adv-x="994" 
d="M30 0l170 1560h597l167 -1560h-333l-23 284h-216l-20 -284h-342zM486 1280l-65 -715h154l-73 715h-16zM259 2053v163l475 188v-287zM497 1672q-176 0 -284.5 67t-108.5 214q0 21 3 42h256q0 -62 29 -94t105 -32q77 0 105.5 32t28.5 94h256q1 -10 1.5 -20t0.5 -15
q0 -151 -106.5 -219.5t-285.5 -68.5z" />
    <glyph glyph-name="uni1EB7" unicode="&#x1eb7;" horiz-adv-x="990" 
d="M345 -16q-125 0 -190.5 58t-89.5 159t-24 229q0 137 27 224.5t92.5 143.5t180.5 95l222 76v154q0 121 -79 121q-72 0 -72 -98v-90h-348q-1 8 -1 20.5v28.5q0 224 105.5 317.5t334.5 93.5q120 0 215 -42.5t150.5 -125.5t55.5 -205v-1143h-356v178q-26 -94 -86 -144
t-137 -50zM486 262q44 0 60 37t16 80v418q-74 -30 -115 -75.5t-41 -133.5v-193q0 -133 80 -133zM315 -417v298h358v-298h-358zM506 1608q-175 0 -283.5 74t-108.5 237q0 21 3 42h256q0 -57 29 -86.5t106 -29.5t106 29.5t29 86.5h256q1 -10 1.5 -20t0.5 -15
q0 -167 -107.5 -242.5t-287.5 -75.5z" />
    <glyph glyph-name="uni1EB7.sc" horiz-adv-x="994" 
d="M30 0l170 1560h597l167 -1560h-333l-23 284h-216l-20 -284h-342zM486 1280l-65 -715h154l-73 715h-16zM318 -417v298h358v-298h-358zM496 1682q-175 0 -283.5 67t-108.5 214q0 21 3 42h256q0 -62 29 -94t106 -32t106 32t29 94h256q2 -24 2 -35q0 -151 -107.5 -219.5
t-287.5 -68.5z" />
    <glyph glyph-name="uni1EB1" unicode="&#x1eb1;" horiz-adv-x="990" 
d="M345 -16q-125 0 -190.5 58t-89.5 159t-24 229q0 137 27 224.5t92.5 143.5t180.5 95l222 76v154q0 121 -79 121q-72 0 -72 -98v-90h-348q-1 8 -1 20.5v28.5q0 224 105.5 317.5t334.5 93.5q120 0 215 -42.5t150.5 -125.5t55.5 -205v-1143h-356v178q-26 -94 -86 -144
t-137 -50zM486 262q44 0 60 37t16 80v418q-74 -30 -115 -75.5t-41 -133.5v-193q0 -133 80 -133zM740 1963l-475 64v287l475 -188v-163zM503 1582q-176 0 -284.5 67t-108.5 214q0 21 3 42h256q0 -62 29 -94t105 -32q77 0 105.5 32t28.5 94h256q1 -10 1.5 -20t0.5 -15
q0 -151 -106.5 -219.5t-285.5 -68.5z" />
    <glyph glyph-name="uni1EB1.sc" horiz-adv-x="994" 
d="M30 0l170 1560h597l167 -1560h-333l-23 284h-216l-20 -284h-342zM486 1280l-65 -715h154l-73 715h-16zM734 2053l-475 64v287l475 -188v-163zM497 1672q-176 0 -284.5 67t-108.5 214q0 21 3 42h256q0 -62 29 -94t105 -32q77 0 105.5 32t28.5 94h256q1 -10 1.5 -20
t0.5 -15q0 -151 -106.5 -219.5t-285.5 -68.5z" />
    <glyph glyph-name="uni1EB3" unicode="&#x1eb3;" horiz-adv-x="990" 
d="M345 -16q-125 0 -190.5 58t-89.5 159t-24 229q0 137 27 224.5t92.5 143.5t180.5 95l222 76v154q0 121 -79 121q-72 0 -72 -98v-90h-348q-1 8 -1 20.5v28.5q0 224 105.5 317.5t334.5 93.5q120 0 215 -42.5t150.5 -125.5t55.5 -205v-1143h-356v178q-26 -94 -86 -144
t-137 -50zM486 262q44 0 60 37t16 80v418q-74 -30 -115 -75.5t-41 -133.5v-193q0 -133 80 -133zM472 1913l-106 124q54 20 87 50t33 80q0 95 -101 95q-47 0 -90 -16v180q88 33 183 33q125 0 195.5 -62.5t70.5 -175.5q0 -127 -78 -199.5t-194 -108.5zM503 1582
q-176 0 -284.5 67t-108.5 214q0 21 3 42h256q0 -62 29 -94t105 -32q77 0 105.5 32t28.5 94h256q1 -10 1.5 -20t0.5 -15q0 -151 -106.5 -219.5t-285.5 -68.5z" />
    <glyph glyph-name="uni1EB3.sc" horiz-adv-x="994" 
d="M30 0l170 1560h597l167 -1560h-333l-23 284h-216l-20 -284h-342zM486 1280l-65 -715h154l-73 715h-16zM466 2003l-106 124q54 20 87 50t33 80q0 95 -101 95q-47 0 -90 -16v180q88 33 183 33q125 0 195.5 -62.5t70.5 -175.5q0 -127 -78 -199.5t-194 -108.5zM497 1672
q-176 0 -284.5 67t-108.5 214q0 21 3 42h256q0 -62 29 -94t105 -32q77 0 105.5 32t28.5 94h256q1 -10 1.5 -20t0.5 -15q0 -151 -106.5 -219.5t-285.5 -68.5z" />
    <glyph glyph-name="uni1EB5" unicode="&#x1eb5;" horiz-adv-x="990" 
d="M345 -16q-125 0 -190.5 58t-89.5 159t-24 229q0 137 27 224.5t92.5 143.5t180.5 95l222 76v154q0 121 -79 121q-72 0 -72 -98v-90h-348q-1 8 -1 20.5v28.5q0 224 105.5 317.5t334.5 93.5q120 0 215 -42.5t150.5 -125.5t55.5 -205v-1143h-356v178q-26 -94 -86 -144
t-137 -50zM486 262q44 0 60 37t16 80v418q-74 -30 -115 -75.5t-41 -133.5v-193q0 -133 80 -133zM668 1969q-60 0 -112.5 23t-102.5 45.5t-103 22.5q-32 0 -60 -15t-52 -53l-148 78q35 86 82.5 148t147.5 62q62 0 114.5 -22.5t101.5 -45.5t102 -23q38 0 62.5 17t49.5 58
l166 -54q-24 -62 -53 -117.5t-74.5 -89.5t-120.5 -34zM503 1582q-176 0 -284.5 67t-108.5 214q0 21 3 42h256q0 -62 29 -94t105 -32q77 0 105.5 32t28.5 94h256q1 -10 1.5 -20t0.5 -15q0 -151 -106.5 -219.5t-285.5 -68.5z" />
    <glyph glyph-name="uni1EB5.sc" horiz-adv-x="994" 
d="M30 0l170 1560h597l167 -1560h-333l-23 284h-216l-20 -284h-342zM486 1280l-65 -715h154l-73 715h-16zM662 2059q-60 0 -112.5 23t-102.5 45.5t-103 22.5q-32 0 -60 -15t-52 -53l-148 78q35 86 82.5 148t147.5 62q62 0 114.5 -22.5t101.5 -45.5t102 -23q38 0 62.5 17
t49.5 58l166 -54q-24 -62 -53 -117.5t-74.5 -89.5t-120.5 -34zM497 1672q-176 0 -284.5 67t-108.5 214q0 21 3 42h256q0 -62 29 -94t105 -32q77 0 105.5 32t28.5 94h256q1 -10 1.5 -20t0.5 -15q0 -151 -106.5 -219.5t-285.5 -68.5z" />
    <glyph glyph-name="uni01CE" unicode="&#x1ce;" horiz-adv-x="990" 
d="M345 -16q-125 0 -190.5 58t-89.5 159t-24 229q0 137 27 224.5t92.5 143.5t180.5 95l222 76v154q0 121 -79 121q-72 0 -72 -98v-90h-348q-1 8 -1 20.5v28.5q0 224 105.5 317.5t334.5 93.5q120 0 215 -42.5t150.5 -125.5t55.5 -205v-1143h-356v178q-26 -94 -86 -144
t-137 -50zM486 262q44 0 60 37t16 80v418q-74 -30 -115 -75.5t-41 -133.5v-193q0 -133 80 -133zM299 1607l-241 403h359l86 -285l86 285h359l-241 -403h-408z" />
    <glyph glyph-name="uni01CE.sc" horiz-adv-x="994" 
d="M30 0l170 1560h597l167 -1560h-333l-23 284h-216l-20 -284h-342zM486 1280l-65 -715h154l-73 715h-16zM52 1967h359l86 -215l86 215h359l-241 -333h-408z" />
    <glyph glyph-name="acircumflex" unicode="&#xe2;" horiz-adv-x="990" 
d="M345 -16q-125 0 -190.5 58t-89.5 159t-24 229q0 137 27 224.5t92.5 143.5t180.5 95l222 76v154q0 121 -79 121q-72 0 -72 -98v-90h-348q-1 8 -1 20.5v28.5q0 224 105.5 317.5t334.5 93.5q120 0 215 -42.5t150.5 -125.5t55.5 -205v-1143h-356v178q-26 -94 -86 -144
t-137 -50zM486 262q44 0 60 37t16 80v418q-74 -30 -115 -75.5t-41 -133.5v-193q0 -133 80 -133zM58 1607l241 403h408l241 -403h-359l-86 285l-86 -285h-359z" />
    <glyph glyph-name="acircumflex.sc" horiz-adv-x="994" 
d="M30 0l170 1560h597l167 -1560h-333l-23 284h-216l-20 -284h-342zM486 1280l-65 -715h154l-73 715h-16zM52 1634l241 333h408l241 -333h-359l-86 215l-86 -215h-359z" />
    <glyph glyph-name="uni1EA5" unicode="&#x1ea5;" horiz-adv-x="990" 
d="M345 -16q-125 0 -190.5 58t-89.5 159t-24 229q0 137 27 224.5t92.5 143.5t180.5 95l222 76v154q0 121 -79 121q-72 0 -72 -98v-90h-348q-1 8 -1 20.5v28.5q0 224 105.5 317.5t334.5 93.5q120 0 215 -42.5t150.5 -125.5t55.5 -205v-1143h-356v178q-26 -94 -86 -144
t-137 -50zM486 262q44 0 60 37t16 80v418q-74 -30 -115 -75.5t-41 -133.5v-193q0 -133 80 -133zM817 1832l164 295h307l-238 -295h-233zM58 1591l241 303h408l241 -303h-355l-90 195l-90 -195h-355z" />
    <glyph glyph-name="uni1EA5.sc" horiz-adv-x="994" 
d="M30 0l170 1560h597l167 -1560h-333l-23 284h-216l-20 -284h-342zM486 1280l-65 -715h154l-73 715h-16zM811 1875l164 295h307l-238 -295h-233zM52 1634l241 303h408l241 -303h-355l-90 195l-90 -195h-355z" />
    <glyph glyph-name="uni1EAD" unicode="&#x1ead;" horiz-adv-x="990" 
d="M345 -16q-125 0 -190.5 58t-89.5 159t-24 229q0 137 27 224.5t92.5 143.5t180.5 95l222 76v154q0 121 -79 121q-72 0 -72 -98v-90h-348q-1 8 -1 20.5v28.5q0 224 105.5 317.5t334.5 93.5q120 0 215 -42.5t150.5 -125.5t55.5 -205v-1143h-356v178q-26 -94 -86 -144
t-137 -50zM486 262q44 0 60 37t16 80v418q-74 -30 -115 -75.5t-41 -133.5v-193q0 -133 80 -133zM58 1607l241 403h408l241 -403h-359l-86 285l-86 -285h-359zM315 -417v298h358v-298h-358z" />
    <glyph glyph-name="uni1EAD.sc" horiz-adv-x="994" 
d="M30 0l170 1560h597l167 -1560h-333l-23 284h-216l-20 -284h-342zM486 1280l-65 -715h154l-73 715h-16zM318 -417v298h358v-298h-358zM52 1634l241 333h408l241 -333h-359l-86 215l-86 -215h-359z" />
    <glyph glyph-name="uni1EA7" unicode="&#x1ea7;" horiz-adv-x="990" 
d="M345 -16q-125 0 -190.5 58t-89.5 159t-24 229q0 137 27 224.5t92.5 143.5t180.5 95l222 76v154q0 121 -79 121q-72 0 -72 -98v-90h-348q-1 8 -1 20.5v28.5q0 224 105.5 317.5t334.5 93.5q120 0 215 -42.5t150.5 -125.5t55.5 -205v-1143h-356v178q-26 -94 -86 -144
t-137 -50zM486 262q44 0 60 37t16 80v418q-74 -30 -115 -75.5t-41 -133.5v-193q0 -133 80 -133zM875 1832l-238 295h307l164 -295h-233zM58 1591l241 303h408l241 -303h-355l-90 195l-90 -195h-355z" />
    <glyph glyph-name="uni1EA7.sc" horiz-adv-x="994" 
d="M30 0l170 1560h597l167 -1560h-333l-23 284h-216l-20 -284h-342zM486 1280l-65 -715h154l-73 715h-16zM869 1875l-238 295h307l164 -295h-233zM52 1634l241 303h408l241 -303h-355l-90 195l-90 -195h-355z" />
    <glyph glyph-name="uni1EA9" unicode="&#x1ea9;" horiz-adv-x="990" 
d="M345 -16q-125 0 -190.5 58t-89.5 159t-24 229q0 137 27 224.5t92.5 143.5t180.5 95l222 76v154q0 121 -79 121q-72 0 -72 -98v-90h-348q-1 8 -1 20.5v28.5q0 224 105.5 317.5t334.5 93.5q120 0 215 -42.5t150.5 -125.5t55.5 -205v-1143h-356v178q-26 -94 -86 -144
t-137 -50zM486 262q44 0 60 37t16 80v418q-74 -30 -115 -75.5t-41 -133.5v-193q0 -133 80 -133zM864 1797l-106 124q54 20 87 50t33 80q0 95 -101 95q-47 0 -90 -16v180q88 33 183 33q125 0 195.5 -62.5t70.5 -175.5q0 -127 -78 -199.5t-194 -108.5zM108 1591l221 313h348
l221 -313h-305l-90 195l-90 -195h-305z" />
    <glyph glyph-name="uni1EA9.sc" horiz-adv-x="994" 
d="M30 0l170 1560h597l167 -1560h-333l-23 284h-216l-20 -284h-342zM486 1280l-65 -715h154l-73 715h-16zM858 1840l-106 124q54 20 87 50t33 80q0 95 -101 95q-47 0 -90 -16v180q88 33 183 33q125 0 195.5 -62.5t70.5 -175.5q0 -127 -78 -199.5t-194 -108.5zM102 1634
l221 313h348l221 -313h-305l-90 195l-90 -195h-305z" />
    <glyph glyph-name="uni1EAB" unicode="&#x1eab;" horiz-adv-x="990" 
d="M345 -16q-125 0 -190.5 58t-89.5 159t-24 229q0 137 27 224.5t92.5 143.5t180.5 95l222 76v154q0 121 -79 121q-72 0 -72 -98v-90h-348q-1 8 -1 20.5v28.5q0 224 105.5 317.5t334.5 93.5q120 0 215 -42.5t150.5 -125.5t55.5 -205v-1143h-356v178q-26 -94 -86 -144
t-137 -50zM486 262q44 0 60 37t16 80v418q-74 -30 -115 -75.5t-41 -133.5v-193q0 -133 80 -133zM668 1969q-60 0 -112.5 23t-102.5 45.5t-103 22.5q-32 0 -60 -15t-52 -53l-148 78q35 86 82.5 148t147.5 62q62 0 114.5 -22.5t101.5 -45.5t102 -23q38 0 62.5 17t49.5 58
l166 -54q-24 -62 -53 -117.5t-74.5 -89.5t-120.5 -34zM58 1591l241 303h408l241 -303h-355l-90 195l-90 -195h-355z" />
    <glyph glyph-name="uni1EAB.sc" horiz-adv-x="994" 
d="M30 0l170 1560h597l167 -1560h-333l-23 284h-216l-20 -284h-342zM486 1280l-65 -715h154l-73 715h-16zM662 2012q-60 0 -112.5 23t-102.5 45.5t-103 22.5q-32 0 -60 -15t-52 -53l-148 78q35 86 82.5 148t147.5 62q62 0 114.5 -22.5t101.5 -45.5t102 -23q38 0 62.5 17
t49.5 58l166 -54q-24 -62 -53 -117.5t-74.5 -89.5t-120.5 -34zM52 1634l241 303h408l241 -303h-355l-90 195l-90 -195h-355z" />
    <glyph glyph-name="acute" unicode="&#xb4;" horiz-adv-x="650" 
d="M91 1553v223l475 218v-347z" />
    <glyph glyph-name="acute.sc" 
d="M-238 1553v223l475 218v-347z" />
    <glyph glyph-name="acutecomb" unicode="&#x301;" 
d="M-238 1553v223l475 218v-347z" />
    <glyph glyph-name="acutecomb.case" 
d="M-238 1537v193l475 168v-287z" />
    <glyph glyph-name="uni03010304" 
d="M-326 2022v153h650v-153h-650zM-238 1553v223l475 218v-347z" />
    <glyph glyph-name="uni1DC7" unicode="&#x1dc7;" 
d="M-326 2022v153h650v-153h-650zM-238 1553v223l475 218v-347z" />
    <glyph glyph-name="uni0201" unicode="&#x201;" horiz-adv-x="990" 
d="M345 -16q-125 0 -190.5 58t-89.5 159t-24 229q0 137 27 224.5t92.5 143.5t180.5 95l222 76v154q0 121 -79 121q-72 0 -72 -98v-90h-348q-1 8 -1 20.5v28.5q0 224 105.5 317.5t334.5 93.5q120 0 215 -42.5t150.5 -125.5t55.5 -205v-1143h-356v178q-26 -94 -86 -144
t-137 -50zM486 262q44 0 60 37t16 80v418q-74 -30 -115 -75.5t-41 -133.5v-193q0 -133 80 -133zM306 1602l-289 429l234 108l221 -479zM608 1602l-248 429l230 108l184 -479z" />
    <glyph glyph-name="uni0201.sc" horiz-adv-x="994" 
d="M30 0l170 1560h597l167 -1560h-333l-23 284h-216l-20 -284h-342zM486 1280l-65 -715h154l-73 715h-16zM329 1693l-289 429l234 108l221 -479zM631 1693l-248 429l230 108l184 -479z" />
    <glyph glyph-name="adieresis" unicode="&#xe4;" horiz-adv-x="990" 
d="M345 -16q-125 0 -190.5 58t-89.5 159t-24 229q0 137 27 224.5t92.5 143.5t180.5 95l222 76v154q0 121 -79 121q-72 0 -72 -98v-90h-348q-1 8 -1 20.5v28.5q0 224 105.5 317.5t334.5 93.5q120 0 215 -42.5t150.5 -125.5t55.5 -205v-1143h-356v178q-26 -94 -86 -144
t-137 -50zM486 262q44 0 60 37t16 80v418q-74 -30 -115 -75.5t-41 -133.5v-193q0 -133 80 -133zM559 1615v298h358v-298h-358zM75 1615v298h358v-298h-358z" />
    <glyph glyph-name="adieresis.sc" horiz-adv-x="994" 
d="M30 0l170 1560h597l167 -1560h-333l-23 284h-216l-20 -284h-342zM486 1280l-65 -715h154l-73 715h-16zM560 1689v298h358v-298h-358zM76 1689v298h358v-298h-358z" />
    <glyph glyph-name="uni01DF" unicode="&#x1df;" horiz-adv-x="990" 
d="M345 -16q-125 0 -190.5 58t-89.5 159t-24 229q0 137 27 224.5t92.5 143.5t180.5 95l222 76v154q0 121 -79 121q-72 0 -72 -98v-90h-348q-1 8 -1 20.5v28.5q0 224 105.5 317.5t334.5 93.5q120 0 215 -42.5t150.5 -125.5t55.5 -205v-1143h-356v178q-26 -94 -86 -144
t-137 -50zM486 262q44 0 60 37t16 80v418q-74 -30 -115 -75.5t-41 -133.5v-193q0 -133 80 -133zM566 1599v248h358v-248h-358zM82 1599v248h358v-248h-358zM178 1956v153h650v-153h-650z" />
    <glyph glyph-name="uni0227" unicode="&#x227;" horiz-adv-x="990" 
d="M345 -16q-125 0 -190.5 58t-89.5 159t-24 229q0 137 27 224.5t92.5 143.5t180.5 95l222 76v154q0 121 -79 121q-72 0 -72 -98v-90h-348q-1 8 -1 20.5v28.5q0 224 105.5 317.5t334.5 93.5q120 0 215 -42.5t150.5 -125.5t55.5 -205v-1143h-356v178q-26 -94 -86 -144
t-137 -50zM486 262q44 0 60 37t16 80v418q-74 -30 -115 -75.5t-41 -133.5v-193q0 -133 80 -133zM324 1608v298h358v-298h-358z" />
    <glyph glyph-name="uni1EA1" unicode="&#x1ea1;" horiz-adv-x="990" 
d="M345 -16q-125 0 -190.5 58t-89.5 159t-24 229q0 137 27 224.5t92.5 143.5t180.5 95l222 76v154q0 121 -79 121q-72 0 -72 -98v-90h-348q-1 8 -1 20.5v28.5q0 224 105.5 317.5t334.5 93.5q120 0 215 -42.5t150.5 -125.5t55.5 -205v-1143h-356v178q-26 -94 -86 -144
t-137 -50zM486 262q44 0 60 37t16 80v418q-74 -30 -115 -75.5t-41 -133.5v-193q0 -133 80 -133zM315 -417v298h358v-298h-358z" />
    <glyph glyph-name="uni1EA1.sc" horiz-adv-x="994" 
d="M30 0l170 1560h597l167 -1560h-333l-23 284h-216l-20 -284h-342zM486 1280l-65 -715h154l-73 715h-16zM318 -417v298h358v-298h-358z" />
    <glyph glyph-name="uni01E1" unicode="&#x1e1;" horiz-adv-x="990" 
d="M345 -16q-125 0 -190.5 58t-89.5 159t-24 229q0 137 27 224.5t92.5 143.5t180.5 95l222 76v154q0 121 -79 121q-72 0 -72 -98v-90h-348q-1 8 -1 20.5v28.5q0 224 105.5 317.5t334.5 93.5q120 0 215 -42.5t150.5 -125.5t55.5 -205v-1143h-356v178q-26 -94 -86 -144
t-137 -50zM486 262q44 0 60 37t16 80v418q-74 -30 -115 -75.5t-41 -133.5v-193q0 -133 80 -133zM324 1592v258h358v-258h-358zM178 1938v153h650v-153h-650z" />
    <glyph glyph-name="ae" unicode="&#xe6;" horiz-adv-x="1497" 
d="M449 -18q-200 0 -305.5 120.5t-105.5 327.5q0 165 39 257.5t115.5 143t187.5 88.5l180 61v103q0 82 -18 119t-59 37q-74 0 -74 -82v-101h-348q-1 8 -1 20.5v28.5q0 224 98.5 318.5t282.5 94.5q127 0 196 -30.5t110 -91.5q40 61 110.5 91.5t186.5 30.5q194 0 298 -106.5
t104 -319.5v-109q0 -101 -1 -171t-3 -108h-521v-210q0 -124 21 -179t70 -55q44 0 61 41t17 152v126h356v-85q0 -161 -35.5 -275.5t-124.5 -175.5t-250 -61q-105 0 -181 47.5t-107 118.5q-34 -73 -110.5 -119.5t-188.5 -46.5zM921 931h169v156q0 162 -80 162q-67 0 -78 -55.5
t-11 -141.5v-121zM483 262q44 0 60 37t16 80v395q-74 -30 -115 -73t-41 -131v-175q0 -133 80 -133z" />
    <glyph glyph-name="ae.sc" horiz-adv-x="1311" 
d="M-44 0l321 1560h972v-309h-286v-297h272v-299h-272v-343h309v-312h-649v404h-207l-79 -404h-381zM462 694h161v567h-52z" />
    <glyph glyph-name="aeacute" unicode="&#x1fd;" horiz-adv-x="1497" 
d="M449 -18q-200 0 -305.5 120.5t-105.5 327.5q0 165 39 257.5t115.5 143t187.5 88.5l180 61v103q0 82 -18 119t-59 37q-74 0 -74 -82v-101h-348q-1 8 -1 20.5v28.5q0 224 98.5 318.5t282.5 94.5q127 0 196 -30.5t110 -91.5q40 61 110.5 91.5t186.5 30.5q194 0 298 -106.5
t104 -319.5v-109q0 -101 -1 -171t-3 -108h-521v-210q0 -124 21 -179t70 -55q44 0 61 41t17 152v126h356v-85q0 -161 -35.5 -275.5t-124.5 -175.5t-250 -61q-105 0 -181 47.5t-107 118.5q-34 -73 -110.5 -119.5t-188.5 -46.5zM921 931h169v156q0 162 -80 162q-67 0 -78 -55.5
t-11 -141.5v-121zM483 262q44 0 60 37t16 80v395q-74 -30 -115 -73t-41 -131v-175q0 -133 80 -133zM511 1553v223l475 218v-347z" />
    <glyph glyph-name="aeacute.sc" horiz-adv-x="1311" 
d="M-44 0l321 1560h972v-309h-286v-297h272v-299h-272v-343h309v-312h-649v404h-207l-79 -404h-381zM462 694h161v567h-52zM489 1627v193l475 168v-287z" />
    <glyph glyph-name="uni01E3" unicode="&#x1e3;" horiz-adv-x="1497" 
d="M449 -18q-200 0 -305.5 120.5t-105.5 327.5q0 165 39 257.5t115.5 143t187.5 88.5l180 61v103q0 82 -18 119t-59 37q-74 0 -74 -82v-101h-348q-1 8 -1 20.5v28.5q0 224 98.5 318.5t282.5 94.5q127 0 196 -30.5t110 -91.5q40 61 110.5 91.5t186.5 30.5q194 0 298 -106.5
t104 -319.5v-109q0 -101 -1 -171t-3 -108h-521v-210q0 -124 21 -179t70 -55q44 0 61 41t17 152v126h356v-85q0 -161 -35.5 -275.5t-124.5 -175.5t-250 -61q-105 0 -181 47.5t-107 118.5q-34 -73 -110.5 -119.5t-188.5 -46.5zM921 931h169v156q0 162 -80 162q-67 0 -78 -55.5
t-11 -141.5v-121zM483 262q44 0 60 37t16 80v395q-74 -30 -115 -73t-41 -131v-175q0 -133 80 -133zM423 1619v153h650v-153h-650z" />
    <glyph glyph-name="agrave" unicode="&#xe0;" horiz-adv-x="990" 
d="M345 -16q-125 0 -190.5 58t-89.5 159t-24 229q0 137 27 224.5t92.5 143.5t180.5 95l222 76v154q0 121 -79 121q-72 0 -72 -98v-90h-348q-1 8 -1 20.5v28.5q0 224 105.5 317.5t334.5 93.5q120 0 215 -42.5t150.5 -125.5t55.5 -205v-1143h-356v178q-26 -94 -86 -144
t-137 -50zM486 262q44 0 60 37t16 80v418q-74 -30 -115 -75.5t-41 -133.5v-193q0 -133 80 -133zM740 1569l-475 94v347l475 -218v-223z" />
    <glyph glyph-name="agrave.sc" horiz-adv-x="994" 
d="M30 0l170 1560h597l167 -1560h-333l-23 284h-216l-20 -284h-342zM486 1280l-65 -715h154l-73 715h-16zM734 1627l-475 74v287l475 -168v-193z" />
    <glyph glyph-name="uni1EA3" unicode="&#x1ea3;" horiz-adv-x="990" 
d="M345 -16q-125 0 -190.5 58t-89.5 159t-24 229q0 137 27 224.5t92.5 143.5t180.5 95l222 76v154q0 121 -79 121q-72 0 -72 -98v-90h-348q-1 8 -1 20.5v28.5q0 224 105.5 317.5t334.5 93.5q120 0 215 -42.5t150.5 -125.5t55.5 -205v-1143h-356v178q-26 -94 -86 -144
t-137 -50zM486 262q44 0 60 37t16 80v418q-74 -30 -115 -75.5t-41 -133.5v-193q0 -133 80 -133zM474 1577l-106 124q54 20 87 50t33 80q0 95 -101 95q-47 0 -90 -16v180q88 33 183 33q125 0 195.5 -62.5t70.5 -175.5q0 -127 -78 -199.5t-194 -108.5z" />
    <glyph glyph-name="uni1EA3.sc" horiz-adv-x="994" 
d="M30 0l170 1560h597l167 -1560h-333l-23 284h-216l-20 -284h-342zM486 1280l-65 -715h154l-73 715h-16zM468 1667l-106 124q54 20 87 50t33 80q0 95 -101 95q-47 0 -90 -16v180q88 33 183 33q125 0 195.5 -62.5t70.5 -175.5q0 -127 -78 -199.5t-194 -108.5z" />
    <glyph glyph-name="uni0203" unicode="&#x203;" horiz-adv-x="990" 
d="M345 -16q-125 0 -190.5 58t-89.5 159t-24 229q0 137 27 224.5t92.5 143.5t180.5 95l222 76v154q0 121 -79 121q-72 0 -72 -98v-90h-348q-1 8 -1 20.5v28.5q0 224 105.5 317.5t334.5 93.5q120 0 215 -42.5t150.5 -125.5t55.5 -205v-1143h-356v178q-26 -94 -86 -144
t-137 -50zM486 262q44 0 60 37t16 80v418q-74 -30 -115 -75.5t-41 -133.5v-193q0 -133 80 -133zM132 1624q-3 20 -3 41q0 163 98.5 237t273.5 74q180 0 277.5 -75.5t97.5 -242.5q0 -5 -0.5 -14.5t-1.5 -19.5h-236q0 68 -38 101t-97 33q-58 0 -96.5 -33t-38.5 -101h-236z" />
    <glyph glyph-name="uni0203.sc" horiz-adv-x="994" 
d="M30 0l170 1560h597l167 -1560h-333l-23 284h-216l-20 -284h-342zM486 1280l-65 -715h154l-73 715h-16zM127 1689q-3 21 -3 42q0 163 98.5 237t273.5 74q180 0 277.5 -75.5t97.5 -242.5q0 -5 -0.5 -14.5t-1.5 -20.5h-236q0 68 -38 101.5t-97 33.5q-58 0 -96.5 -33.5
t-38.5 -101.5h-236z" />
    <glyph glyph-name="uni0251" unicode="&#x251;" horiz-adv-x="1028" 
d="M367 -16q-104 0 -165.5 38t-92 105t-40 157t-9.5 193v546q0 104 9.5 193.5t40 156.5t92 105t165.5 38q94 0 143.5 -47t79.5 -128v159h358v-1068q0 -85 21.5 -108.5t58.5 -23.5v-316q-290 0 -410 160q-32 -65 -89 -112.5t-162 -47.5zM504 264q47 0 66.5 47t19.5 141v608
q0 92 -21 134t-65 42q-43 0 -64.5 -42t-21.5 -136v-606q0 -188 86 -188z" />
    <glyph glyph-name="amacron" unicode="&#x101;" horiz-adv-x="990" 
d="M345 -16q-125 0 -190.5 58t-89.5 159t-24 229q0 137 27 224.5t92.5 143.5t180.5 95l222 76v154q0 121 -79 121q-72 0 -72 -98v-90h-348q-1 8 -1 20.5v28.5q0 224 105.5 317.5t334.5 93.5q120 0 215 -42.5t150.5 -125.5t55.5 -205v-1143h-356v178q-26 -94 -86 -144
t-137 -50zM486 262q44 0 60 37t16 80v418q-74 -30 -115 -75.5t-41 -133.5v-193q0 -133 80 -133zM174 1635v153h650v-153h-650z" />
    <glyph glyph-name="amacron.sc" horiz-adv-x="994" 
d="M30 0l170 1560h597l167 -1560h-333l-23 284h-216l-20 -284h-342zM486 1280l-65 -715h154l-73 715h-16zM172 1728v153h650v-153h-650z" />
    <glyph glyph-name="ampersand" unicode="&#x26;" horiz-adv-x="1065" 
d="M386 -21q-164 0 -257.5 127t-93.5 350q0 159 28.5 264t79.5 175t117 122l-8 20q-42 104 -73.5 198.5t-31.5 194.5q0 101 43 179t119.5 122.5t175.5 44.5q98 0 178.5 -42.5t128.5 -127.5t48 -215q0 -141 -52.5 -236t-157.5 -183l96 -242q59 149 170 231l139 -217
q-116 -93 -194 -303l176 -441h-340l-39 95q-39 -48 -104.5 -82t-147.5 -34zM461 1461q0 -26 13 -76.5t61 -174.5q19 20 34 63t15 118q0 77 -18.5 108t-48.5 31q-29 0 -42.5 -21.5t-13.5 -47.5zM341 413q0 -178 101 -178q41 0 66 30.5t34 63.5l-168 409q-33 -70 -33 -245v-80
z" />
    <glyph glyph-name="ampersand.sc" horiz-adv-x="1035" 
d="M356 -21q-109 0 -180.5 54.5t-106 146.5t-34.5 206q0 206 59.5 326.5t178.5 208.5q-34 67 -67 159.5t-33 181.5q0 152 99.5 236t248.5 84q147 0 246 -80t99 -229q0 -211 -235 -398l63 -149q59 152 172 235l139 -217q-118 -94 -197 -312l179 -432h-340l-37 97
q-39 -49 -105 -83.5t-149 -34.5zM540 1110l17 18q19 20 36 62.5t17 82.5q0 63 -59 63q-25 0 -39.5 -18.5t-14.5 -44.5q0 -55 43 -163zM412 235q43 0 68 32.5t33 66.5l-122 291q-50 -74 -50 -202v-10q0 -36 3 -77.5t18 -71t50 -29.5z" />
    <glyph glyph-name="aogonek" unicode="&#x105;" horiz-adv-x="990" 
d="M345 -16q-125 0 -190.5 58t-89.5 159t-24 229q0 137 27 224.5t92.5 143.5t180.5 95l222 76v154q0 121 -79 121q-72 0 -72 -98v-90h-348q-1 8 -1 20.5v28.5q0 224 105.5 317.5t334.5 93.5q120 0 215 -42.5t150.5 -125.5t55.5 -205v-1143h-356v178q-26 -94 -86 -144
t-137 -50zM486 262q44 0 60 37t16 80v418q-74 -30 -115 -75.5t-41 -133.5v-193q0 -133 80 -133zM740 -631q-95 0 -174 36t-126.5 103.5t-47.5 161.5q0 182 264 330h211q-68 -65 -114 -130.5t-46 -148.5q0 -112 115 -112q49 0 116 23v-223q-95 -40 -198 -40z" />
    <glyph glyph-name="aogonek.sc" horiz-adv-x="994" 
d="M30 0l170 1560h597l167 -1560h-333l-23 284h-216l-20 -284h-342zM486 1280l-65 -715h154l-73 715h-16zM775 -631q-95 0 -174 36t-126.5 103.5t-47.5 161.5q0 182 264 330h211q-68 -65 -114 -130.5t-46 -148.5q0 -112 115 -112q49 0 116 23v-223q-95 -40 -198 -40z" />
    <glyph glyph-name="uni02BC" unicode="&#x2bc;" horiz-adv-x="600" 
d="M183 966l66 236h-127v298h374v-289l-102 -245h-211z" />
    <glyph glyph-name="approxequal" unicode="&#x2248;" horiz-adv-x="1009" 
d="M732 810q-70 0 -128.5 14t-120.5 38q-61 24 -101.5 36t-68.5 12q-29 0 -54 -16.5t-47 -58.5l-162 86q27 66 60 121.5t82.5 88.5t127.5 33q80 0 133.5 -12.5t120.5 -38.5q59 -22 90.5 -31t55.5 -9q30 0 55 18t47 64l182 -60q-27 -73 -58.5 -138.5t-81 -106t-132.5 -40.5z
M732 340q-70 0 -128.5 14t-120.5 38q-61 24 -101.5 36t-68.5 12q-29 0 -54 -16.5t-47 -58.5l-162 86q27 66 60 121.5t82.5 88.5t127.5 33q80 0 133.5 -12.5t120.5 -38.5q59 -22 90.5 -31t55.5 -9q30 0 55 18t47 64l182 -60q-27 -73 -58.5 -138.5t-81 -106t-132.5 -40.5z" />
    <glyph glyph-name="aring" unicode="&#xe5;" horiz-adv-x="990" 
d="M345 -16q-125 0 -190.5 58t-89.5 159t-24 229q0 137 27 224.5t92.5 143.5t180.5 95l222 76v154q0 121 -79 121q-72 0 -72 -98v-90h-348q-1 8 -1 20.5v28.5q0 224 105.5 317.5t334.5 93.5q120 0 215 -42.5t150.5 -125.5t55.5 -205v-1143h-356v178q-26 -94 -86 -144
t-137 -50zM486 262q44 0 60 37t16 80v418q-74 -30 -115 -75.5t-41 -133.5v-193q0 -133 80 -133zM502 1596q-160 0 -256.5 89.5t-96.5 248.5q0 158 96.5 248t256.5 90q161 0 257.5 -90t96.5 -248t-96.5 -248t-257.5 -90zM503 1777q67 0 104.5 46t37.5 111t-37.5 111
t-104.5 46t-104.5 -46t-37.5 -111t37.5 -111t104.5 -46z" />
    <glyph glyph-name="aring.sc" horiz-adv-x="994" 
d="M30 0l170 1560h597l167 -1560h-333l-23 284h-216l-20 -284h-342zM486 1280l-65 -715h154l-73 715h-16zM497 1670q-160 0 -256.5 84t-96.5 234q0 149 96.5 233.5t256.5 84.5q161 0 257.5 -84.5t96.5 -233.5q0 -148 -96.5 -233t-257.5 -85zM498 1851q67 0 104.5 40t37.5 97
t-37.5 97t-104.5 40t-104.5 -40t-37.5 -97t37.5 -97t104.5 -40z" />
    <glyph glyph-name="aringacute" unicode="&#x1fb;" horiz-adv-x="990" 
d="M345 -16q-125 0 -190.5 58t-89.5 159t-24 229q0 137 27 224.5t92.5 143.5t180.5 95l222 76v154q0 121 -79 121q-72 0 -72 -98v-90h-348q-1 8 -1 20.5v28.5q0 224 105.5 317.5t334.5 93.5q120 0 215 -42.5t150.5 -125.5t55.5 -205v-1143h-356v178q-26 -94 -86 -144
t-137 -50zM486 262q44 0 60 37t16 80v418q-74 -30 -115 -75.5t-41 -133.5v-193q0 -133 80 -133zM503 1580q-160 0 -256.5 84t-96.5 234q0 149 96.5 233.5t256.5 84.5q161 0 257.5 -84.5t96.5 -233.5q0 -148 -96.5 -233t-257.5 -85zM504 1761q67 0 104.5 40t37.5 97t-37.5 97
t-104.5 40t-104.5 -40t-37.5 -97t37.5 -97t104.5 -40zM266 2253v193l475 168v-287z" />
    <glyph glyph-name="aringacute.sc" horiz-adv-x="994" 
d="M30 0l170 1560h597l167 -1560h-333l-23 284h-216l-20 -284h-342zM486 1280l-65 -715h154l-73 715h-16zM497 1670q-160 0 -256.5 84t-96.5 234q0 149 96.5 233.5t256.5 84.5q161 0 257.5 -84.5t96.5 -233.5q0 -148 -96.5 -233t-257.5 -85zM498 1851q67 0 104.5 40t37.5 97
t-37.5 97t-104.5 40t-104.5 -40t-37.5 -97t37.5 -97t104.5 -40zM260 2343v193l475 168v-287z" />
    <glyph glyph-name="uni1E01" unicode="&#x1e01;" horiz-adv-x="990" 
d="M345 -16q-125 0 -190.5 58t-89.5 159t-24 229q0 137 27 224.5t92.5 143.5t180.5 95l222 76v154q0 121 -79 121q-72 0 -72 -98v-90h-348q-1 8 -1 20.5v28.5q0 224 105.5 317.5t334.5 93.5q120 0 215 -42.5t150.5 -125.5t55.5 -205v-1143h-356v178q-26 -94 -86 -144
t-137 -50zM486 262q44 0 60 37t16 80v418q-74 -30 -115 -75.5t-41 -133.5v-193q0 -133 80 -133zM493 -633q-160 0 -256.5 84t-96.5 234q0 149 96.5 233.5t256.5 84.5q161 0 257.5 -84.5t96.5 -233.5q0 -148 -96.5 -233t-257.5 -85zM494 -452q67 0 104.5 40t37.5 97t-37.5 97
t-104.5 40t-104.5 -40t-37.5 -97t37.5 -97t104.5 -40z" />
    <glyph glyph-name="asciicircum" unicode="^" horiz-adv-x="970" 
d="M40 432l241 923h408l241 -923h-359l-86 595l-86 -595h-359z" />
    <glyph glyph-name="asciitilde" unicode="~" horiz-adv-x="1009" 
d="M732 810q-70 0 -128.5 14t-120.5 38q-61 24 -101.5 36t-68.5 12q-29 0 -54 -16.5t-47 -58.5l-162 86q27 66 60 121.5t82.5 88.5t127.5 33q80 0 133.5 -12.5t120.5 -38.5q59 -22 90.5 -31t55.5 -9q30 0 55 18t47 64l182 -60q-27 -73 -58.5 -138.5t-81 -106t-132.5 -40.5z
" />
    <glyph glyph-name="asterisk" unicode="*" horiz-adv-x="926" 
d="M347 741l44 302l-239 -189l-116 200l274 117l-274 109l116 200l238 -179l-43 292h232l-35 -286l230 173l116 -200l-275 -109l275 -117l-116 -200l-231 182l36 -295h-232z" />
    <glyph glyph-name="uni2C65" unicode="&#x2c65;" horiz-adv-x="990" 
d="M101 -186l58 225q-70 56 -94 158.5t-24 232.5q0 137 27 224.5t92.5 143.5t180.5 95l222 76v154q0 121 -79 121q-72 0 -72 -98v-90h-348q-1 8 -1 20.5v28.5q0 224 105.5 317.5t334.5 93.5q21 0 41 -1l62 245h140l-68 -270q111 -37 178.5 -124.5t67.5 -222.5v-1143h-356
v178q-26 -94 -86 -144t-137 -50q-31 0 -59 4l-45 -174h-140zM486 262q44 0 60 37t16 80v418q-74 -30 -115 -75.5t-41 -133.5v-193q0 -133 80 -133z" />
    <glyph glyph-name="at" unicode="@" horiz-adv-x="1770" 
d="M919 -158q-177 0 -331.5 51.5t-272.5 163t-184.5 289.5t-66.5 431q0 314 103 537.5t296.5 342.5t464.5 119q258 0 432.5 -107t263 -307.5t88.5 -479.5q0 -292 -89 -448.5t-294 -156.5q-147 0 -217 60.5t-105 153.5q-18 -91 -66.5 -148.5t-130.5 -57.5q-99 0 -166 68.5
t-100.5 180t-33.5 240.5q0 144 26.5 263.5t89.5 190.5t172 71q72 0 119.5 -38.5t84.5 -101.5l39 131h226v-640q0 -78 24 -111.5t65 -33.5q66 0 88 95t22 277q0 205 -49 352.5t-161.5 227t-305.5 79.5q-295 0 -447.5 -197t-152.5 -565q0 -347 159.5 -521.5t424.5 -174.5
q107 0 266 21l31 -226q-177 -31 -312 -31zM903 532q46 0 62.5 47.5t16.5 102.5v392q-62 0 -97.5 -25t-50 -88t-14.5 -178q0 -59 7 -117t25.5 -96t50.5 -38z" />
    <glyph glyph-name="at.case" horiz-adv-x="1770" 
d="M919 -158q-177 0 -331.5 51.5t-272.5 163t-184.5 289.5t-66.5 431q0 314 103 537.5t296.5 342.5t464.5 119q258 0 432.5 -107t263 -307.5t88.5 -479.5q0 -292 -89 -448.5t-294 -156.5q-147 0 -217 60.5t-105 153.5q-18 -91 -66.5 -148.5t-130.5 -57.5q-99 0 -166 68.5
t-100.5 180t-33.5 240.5q0 144 26.5 263.5t89.5 190.5t172 71q72 0 119.5 -38.5t84.5 -101.5l39 131h226v-640q0 -78 24 -111.5t65 -33.5q66 0 88 95t22 277q0 205 -49 352.5t-161.5 227t-305.5 79.5q-295 0 -447.5 -197t-152.5 -565q0 -347 159.5 -521.5t424.5 -174.5
q107 0 266 21l31 -226q-177 -31 -312 -31zM903 532q46 0 62.5 47.5t16.5 102.5v392q-62 0 -97.5 -25t-50 -88t-14.5 -178q0 -59 7 -117t25.5 -96t50.5 -38z" />
    <glyph glyph-name="atilde" unicode="&#xe3;" horiz-adv-x="990" 
d="M345 -16q-125 0 -190.5 58t-89.5 159t-24 229q0 137 27 224.5t92.5 143.5t180.5 95l222 76v154q0 121 -79 121q-72 0 -72 -98v-90h-348q-1 8 -1 20.5v28.5q0 224 105.5 317.5t334.5 93.5q120 0 215 -42.5t150.5 -125.5t55.5 -205v-1143h-356v178q-26 -94 -86 -144
t-137 -50zM486 262q44 0 60 37t16 80v418q-74 -30 -115 -75.5t-41 -133.5v-193q0 -133 80 -133zM668 1627q-77 0 -136 23t-107.5 45.5t-94.5 22.5q-26 0 -49 -15t-43 -53l-148 78q25 61 54.5 111.5t75.5 81t117 30.5q74 0 131 -21t103.5 -42t85.5 -21q27 0 50 17t43 58
l166 -54q-24 -67 -53 -127t-74.5 -97t-120.5 -37z" />
    <glyph glyph-name="atilde.sc" horiz-adv-x="994" 
d="M30 0l170 1560h597l167 -1560h-333l-23 284h-216l-20 -284h-342zM486 1280l-65 -715h154l-73 715h-16zM662 1671q-74 0 -135.5 23t-111.5 45.5t-91 22.5q-26 0 -49 -15t-43 -53l-148 78q25 55 54.5 101t75.5 74t117 28t129.5 -21t105.5 -42t85 -21q27 0 50 17t43 58
l166 -54q-24 -62 -53 -117.5t-74.5 -89.5t-120.5 -34z" />
    <glyph glyph-name="b" unicode="b" horiz-adv-x="1027" 
d="M671 -16q-88 0 -143 43.5t-88 132.5v-160h-364v1760h364v-420q33 83 91.5 129.5t167.5 46.5q147 0 207.5 -107t60.5 -280v-738q0 -115 -31.5 -207.5t-97 -146t-167.5 -53.5zM523 263q57 0 69 56t12 138v586q0 83 -12 138.5t-68 55.5q-58 0 -71 -56.5t-13 -137.5v-586
q0 -81 13 -137.5t70 -56.5z" />
    <glyph glyph-name="b.sc" horiz-adv-x="980" 
d="M78 0v1560h477q192 0 279.5 -93.5t87.5 -308.5v-34q0 -124 -44.5 -201t-135.5 -101q79 -20 122.5 -75.5t60.5 -135.5t17 -174q0 -79 -17.5 -156.5t-60 -141t-118 -101.5t-191.5 -38h-477zM422 947h72q49 0 63 38t14 91v107q0 85 -75 85h-74v-321zM457 290q137 0 137 130
v90q0 75 -22.5 118.5t-84.5 43.5h-65v-380q8 -1 17.5 -1.5t17.5 -0.5z" />
    <glyph glyph-name="backslash" unicode="\" horiz-adv-x="830" 
d="M438 0l-411 1767h364l410 -1767h-363z" />
    <glyph glyph-name="backslash.case" horiz-adv-x="830" 
d="M438 0l-411 1760h364l410 -1760h-363z" />
    <glyph glyph-name="bar" unicode="|" horiz-adv-x="443" 
d="M62 -84v2037h319v-2037h-319z" />
    <glyph glyph-name="uni1E03" unicode="&#x1e03;" horiz-adv-x="1027" 
d="M671 -16q-88 0 -143 43.5t-88 132.5v-160h-364v1760h364v-420q33 83 91.5 129.5t167.5 46.5q147 0 207.5 -107t60.5 -280v-738q0 -115 -31.5 -207.5t-97 -146t-167.5 -53.5zM523 263q57 0 69 56t12 138v586q0 83 -12 138.5t-68 55.5q-58 0 -71 -56.5t-13 -137.5v-586
q0 -81 13 -137.5t70 -56.5zM546 1619v298h358v-298h-358z" />
    <glyph glyph-name="uni1E05" unicode="&#x1e05;" horiz-adv-x="1027" 
d="M671 -16q-88 0 -143 43.5t-88 132.5v-160h-364v1760h364v-420q33 83 91.5 129.5t167.5 46.5q147 0 207.5 -107t60.5 -280v-738q0 -115 -31.5 -207.5t-97 -146t-167.5 -53.5zM523 263q57 0 69 56t12 138v586q0 83 -12 138.5t-68 55.5q-58 0 -71 -56.5t-13 -137.5v-586
q0 -81 13 -137.5t70 -56.5zM335 -417v298h358v-298h-358z" />
    <glyph glyph-name="uniA7B5" unicode="&#xa7b5;" horiz-adv-x="1007" 
d="M58 -250v1662q0 364 425 364q194 0 310 -84t116 -280v-117q0 -105 -34.5 -177t-115.5 -98q127 -30 168.5 -148.5t41.5 -312.5q0 -302 -107 -435.5t-299 -133.5q-93 0 -155 25v-265h-350zM408 314q0 -37 29 -57t76 -20t77.5 24.5t30.5 74.5v395q0 81 -32.5 114t-114.5 33
v248q53 0 68.5 34t15.5 85v208q0 76 -75 76t-75 -76v-1139z" />
    <glyph glyph-name="uni0253" unicode="&#x253;" horiz-adv-x="1027" 
d="M671 -16q-88 0 -143 43.5t-88 132.5v-160h-368v1328q0 131 48.5 232t152.5 158.5t271 57.5v-276q-56 0 -80 -33.5t-24 -98.5v-126q33 83 91.5 129.5t167.5 46.5q147 0 207.5 -107t60.5 -280v-640q0 -115 -31.5 -207.5t-97 -146t-167.5 -53.5zM523 263q57 0 69 56t12 138
v488q0 83 -12 138.5t-68 55.5q-58 0 -71 -56.5t-13 -137.5v-488q0 -81 13 -137.5t70 -56.5z" />
    <glyph glyph-name="uni0298" unicode="&#x298;" horiz-adv-x="1017" 
d="M508 -16q-448 0 -448 465v602q0 212 119 338.5t329 126.5q211 0 330 -126.5t119 -338.5v-602q0 -465 -449 -465zM508 260q45 0 64.5 32.5t19.5 82.5v733q0 131 -84 131t-84 -131v-733q0 -50 19.5 -82.5t64.5 -32.5zM453 630v264h110v-264h-110z" />
    <glyph glyph-name="uni25C6" unicode="&#x25c6;" horiz-adv-x="1484" 
d="M742 52l-702 704l702 704l702 -704z" />
    <glyph glyph-name="filledbox" unicode="&#x25a0;" horiz-adv-x="1652" 
d="M78 0v1500h1496v-1500h-1496z" />
    <glyph glyph-name="uni1E07" unicode="&#x1e07;" horiz-adv-x="1027" 
d="M671 -16q-88 0 -143 43.5t-88 132.5v-160h-364v1760h364v-420q33 83 91.5 129.5t167.5 46.5q147 0 207.5 -107t60.5 -280v-738q0 -115 -31.5 -207.5t-97 -146t-167.5 -53.5zM523 263q57 0 69 56t12 138v586q0 83 -12 138.5t-68 55.5q-58 0 -71 -56.5t-13 -137.5v-586
q0 -81 13 -137.5t70 -56.5zM189 -272v153h650v-153h-650z" />
    <glyph glyph-name="braceleft" unicode="{" horiz-adv-x="696" 
d="M661 -188q-190 4 -297 37.5t-150.5 112.5t-43.5 218v335q0 100 -23.5 147t-115.5 57v197q92 11 115.5 57.5t23.5 146.5v335q0 140 43.5 218.5t150.5 112t297 37.5v-267q-54 -4 -96.5 -17.5t-42.5 -66.5v-375q0 -96 -30.5 -152.5t-80.5 -85t-107 -41.5q57 -13 107 -41.5
t80.5 -85t30.5 -153.5v-375q0 -53 42.5 -66.5t96.5 -17.5v-267z" />
    <glyph glyph-name="braceleft.case" horiz-adv-x="696" 
d="M661 -10q-190 4 -297 37.5t-150.5 112.5t-43.5 218v225q0 100 -23.5 147t-115.5 57v197q92 11 115.5 57.5t23.5 146.5v214q0 140 43.5 218.5t150.5 112t297 37.5v-267q-54 -4 -96.5 -17.5t-42.5 -66.5v-254q0 -97 -30.5 -153t-80.5 -84.5t-107 -41.5q57 -13 107 -41.5
t80.5 -85t30.5 -153.5v-265q0 -53 42.5 -66.5t96.5 -17.5v-267z" />
    <glyph glyph-name="braceright" unicode="}" horiz-adv-x="697" 
d="M40 -188v267q54 4 96.5 17.5t42.5 66.5v375q0 97 30.5 153.5t80.5 85t107 41.5q-57 13 -107 41.5t-80.5 84.5t-30.5 153v375q0 53 -42.5 66.5t-96.5 17.5v267q190 -4 297 -37.5t150.5 -112t43.5 -218.5v-335q0 -100 24 -146.5t115 -57.5v-197q-91 -10 -115 -57t-24 -147
v-335q0 -139 -43.5 -218t-150.5 -112.5t-297 -37.5z" />
    <glyph glyph-name="braceright.case" horiz-adv-x="696" 
d="M35 -10v267q54 4 96.5 17.5t42.5 66.5v265q0 97 30.5 153.5t80.5 85t107 41.5q-57 13 -107 41.5t-80.5 84.5t-30.5 153v254q0 53 -42.5 66.5t-96.5 17.5v267q190 -4 297 -37.5t150.5 -112t43.5 -218.5v-214q0 -100 24 -146.5t115 -57.5v-197q-91 -10 -115 -57t-24 -147
v-225q0 -139 -43.5 -218t-150.5 -112.5t-297 -37.5z" />
    <glyph glyph-name="bracketleft" unicode="[" horiz-adv-x="651" 
d="M62 -188v2011h554v-281h-202v-1449h202v-281h-554z" />
    <glyph glyph-name="bracketleft.case" horiz-adv-x="651" 
d="M62 0v1760h554v-281h-202v-1198h202v-281h-554z" />
    <glyph glyph-name="bracketright" unicode="]" horiz-adv-x="651" 
d="M35 -188v281h202v1449h-202v281h554v-2011h-554z" />
    <glyph glyph-name="bracketright.case" horiz-adv-x="651" 
d="M589 0h-554v281h202v1198h-202v281h554v-1760z" />
    <glyph glyph-name="breve" unicode="&#x2d8;" horiz-adv-x="1015" 
d="M501 1592q-175 0 -283.5 74t-108.5 237q0 21 3 42h256q0 -57 29 -86.5t106 -29.5t106 29.5t29 86.5h256q1 -10 1.5 -20t0.5 -15q0 -167 -107.5 -242.5t-287.5 -75.5z" />
    <glyph glyph-name="uni032E" unicode="&#x32e;" 
d="M-1 -416q-175 0 -283.5 74t-108.5 237q0 22 3 41h256q0 -56 29 -85.5t106 -29.5t106 29.5t29 85.5h256q2 -24 2 -34q0 -167 -107.5 -242.5t-287.5 -75.5z" />
    <glyph glyph-name="uni032E.case" 
d="M-1 -516q-175 0 -283.5 74t-108.5 237q0 21 3 42h256q0 -57 29 -86.5t106 -29.5t106 29.5t29 86.5h256q2 -24 2 -35q0 -167 -107.5 -242.5t-287.5 -75.5z" />
    <glyph glyph-name="uni0306" unicode="&#x306;" 
d="M-1 1592q-175 0 -283.5 74t-108.5 237q0 21 3 42h256q0 -57 29 -86.5t106 -29.5t106 29.5t29 86.5h256q1 -10 1.5 -20t0.5 -15q0 -167 -107.5 -242.5t-287.5 -75.5z" />
    <glyph glyph-name="uni0306.case" 
d="M-1 1592q-175 0 -283.5 67t-108.5 214q0 21 3 42h256q0 -62 29 -94t106 -32t106 32t29 94h256q2 -24 2 -35q0 -151 -107.5 -219.5t-287.5 -68.5z" />
    <glyph glyph-name="uni03060301" 
d="M-238 1963v163l475 188v-287zM0 1582q-176 0 -284.5 67t-108.5 214q0 21 3 42h256q0 -62 29 -94t105 -32q77 0 105.5 32t28.5 94h256q1 -10 1.5 -20t0.5 -15q0 -151 -106.5 -219.5t-285.5 -68.5z" />
    <glyph glyph-name="uni03060301.case" 
d="M-165 2161v105l374 188v-229zM-5 1830q-98 0 -172 35t-114.5 90t-40.5 114q0 21 3 42h190q0 -62 29 -94t105 -32q77 0 105.5 32t28.5 94h201q2 -24 2 -35q0 -62 -40.5 -118.5t-116 -92t-180.5 -35.5z" />
    <glyph glyph-name="uni03060300" 
d="M237 1963l-475 64v287l475 -188v-163zM0 1582q-176 0 -284.5 67t-108.5 214q0 21 3 42h256q0 -62 29 -94t105 -32q77 0 105.5 32t28.5 94h256q1 -10 1.5 -20t0.5 -15q0 -151 -106.5 -219.5t-285.5 -68.5z" />
    <glyph glyph-name="uni03060300.case" 
d="M209 2161l-374 64v229l374 -188v-105zM-5 1830q-98 0 -172 35t-114.5 90t-40.5 114q0 21 3 42h190q0 -62 29 -94t105 -32q77 0 105.5 32t28.5 94h201q2 -22 2 -35q0 -62 -40.5 -118.5t-116 -92t-180.5 -35.5z" />
    <glyph glyph-name="uni03060309" 
d="M-31 1913l-106 124q54 20 87 50t33 80q0 95 -101 95q-47 0 -90 -16v180q88 33 183 33q125 0 195.5 -62.5t70.5 -175.5q0 -127 -78 -199.5t-194 -108.5zM0 1582q-176 0 -284.5 67t-108.5 214q0 21 3 42h256q0 -62 29 -94t105 -32q77 0 105.5 32t28.5 94h256q1 -10 1.5 -20
t0.5 -15q0 -151 -106.5 -219.5t-285.5 -68.5z" />
    <glyph glyph-name="uni03060309.case" 
d="M6 2129l-66 77q34 13 54.5 31.5t20.5 49.5q0 59 -63 59q-28 0 -56 -10v112q57 21 114 21q77 0 121 -39t44 -109q0 -79 -48.5 -124t-120.5 -68zM-5 1830q-98 0 -172 35t-114.5 90t-40.5 114q0 21 3 42h190q0 -62 29 -94t105 -32q77 0 105.5 32t28.5 94h201q1 -10 1.5 -20
t0.5 -15q0 -62 -40.5 -118.5t-116 -92t-180.5 -35.5z" />
    <glyph glyph-name="uni03060303" 
d="M165 1969q-60 0 -112.5 23t-102.5 45.5t-103 22.5q-32 0 -60 -15t-52 -53l-148 78q35 86 82.5 148t147.5 62q62 0 114.5 -22.5t101.5 -45.5t102 -23q38 0 62.5 17t49.5 58l166 -54q-24 -62 -53 -117.5t-74.5 -89.5t-120.5 -34zM0 1582q-176 0 -284.5 67t-108.5 214
q0 21 3 42h256q0 -62 29 -94t105 -32q77 0 105.5 32t28.5 94h256q1 -10 1.5 -20t0.5 -15q0 -151 -106.5 -219.5t-285.5 -68.5z" />
    <glyph glyph-name="uni03060303.case" 
d="M138 2174q-45 0 -84.5 17t-77.5 34t-77 17q-24 0 -45 -11t-39 -40l-111 58q26 65 62 111.5t111 46.5q47 0 86 -17t76 -34t77 -17q50 0 84 56l125 -40q-28 -70 -65 -125.5t-122 -55.5zM-5 1830q-98 0 -172 35t-114.5 90t-40.5 114q0 21 3 42h190q0 -62 29 -94t105 -32
q77 0 105.5 32t28.5 94h201q1 -10 1.5 -20t0.5 -15q0 -62 -40.5 -118.5t-116 -92t-180.5 -35.5z" />
    <glyph glyph-name="uni032F" unicode="&#x32f;" 
d="M-371 -513q-3 21 -3 42q0 163 98.5 237t273.5 74q180 0 277.5 -75.5t97.5 -242.5q0 -5 -0.5 -14.5t-1.5 -20.5h-236q0 68 -38 101.5t-97 33.5q-58 0 -96.5 -33.5t-38.5 -101.5h-236z" />
    <glyph glyph-name="uni0311" unicode="&#x311;" 
d="M-371 1608q-3 20 -3 41q0 163 98.5 237t273.5 74q180 0 277.5 -75.5t97.5 -242.5q0 -5 -0.5 -14.5t-1.5 -19.5h-236q0 68 -38 101t-97 33q-58 0 -96.5 -33t-38.5 -101h-236z" />
    <glyph glyph-name="uni0311.case" 
d="M-371 1709q-3 21 -3 42q0 163 98.5 237t273.5 74q180 0 277.5 -75.5t97.5 -242.5q0 -5 -0.5 -14.5t-1.5 -20.5h-236q0 68 -38 101.5t-97 33.5q-58 0 -96.5 -33.5t-38.5 -101.5h-236z" />
    <glyph glyph-name="brokenbar" unicode="&#xa6;" horiz-adv-x="455" 
d="M68 1043v910h319v-910h-319zM68 -84v880h319v-880h-319z" />
    <glyph glyph-name="uni0180" unicode="&#x180;" horiz-adv-x="1027" 
d="M671 -16q-88 0 -143 43.5t-88 132.5v-160h-364v1512h-154v153h154v95h364v-95h132v-153h-132v-172q33 83 91.5 129.5t167.5 46.5q147 0 207.5 -107t60.5 -280v-738q0 -115 -31.5 -207.5t-97 -146t-167.5 -53.5zM523 263q57 0 69 56t12 138v586q0 83 -12 138.5t-68 55.5
q-58 0 -71 -56.5t-13 -137.5v-586q0 -81 13 -137.5t70 -56.5z" />
    <glyph glyph-name="bullet" unicode="&#x2022;" horiz-adv-x="721" 
d="M360 403q-149 0 -231 93.5t-82 244.5q0 152 82 245t231 93t231.5 -93t82.5 -245q0 -151 -82.5 -244.5t-231.5 -93.5z" />
    <glyph glyph-name="bullet.case" horiz-adv-x="721" 
d="M360 573q-149 0 -231 93.5t-82 244.5q0 152 82 245t231 93t231.5 -93t82.5 -245q0 -151 -82.5 -244.5t-231.5 -93.5z" />
    <glyph glyph-name="uni2219" unicode="&#x2219;" horiz-adv-x="600" 
d="M151 723v298h318v-298h-318z" />
    <glyph glyph-name="c" unicode="c" horiz-adv-x="1006" 
d="M523 -16q-252 0 -357.5 129t-105.5 379v462q0 188 40 313t140 187t278 62q124 0 222.5 -44t155.5 -129t57 -208v-229h-365v210q0 52 -15 87.5t-65 35.5q-88 0 -88 -125v-727q0 -46 20 -84.5t66 -38.5q47 0 65.5 37.5t18.5 87.5v252h363v-262q0 -124 -55.5 -212.5
t-152.5 -135.5t-222 -47z" />
    <glyph glyph-name="c.sc" horiz-adv-x="971" 
d="M488 -16q-191 0 -307.5 119t-116.5 333v612q0 256 101.5 392t330.5 136q125 0 222.5 -46t153.5 -137.5t56 -230.5v-280h-350v246q0 79 -20 106.5t-62 27.5q-49 0 -66 -35.5t-17 -94.5v-701q0 -73 21.5 -103t61.5 -30q45 0 63.5 37t18.5 96v227h354v-233
q0 -232 -117 -336.5t-327 -104.5z" />
    <glyph glyph-name="c_h" horiz-adv-x="2041" 
d="M523 -16q-252 0 -357.5 129t-105.5 379v462q0 188 40 313t140 187t278 62q124 0 222.5 -44t155.5 -129t57 -208v-229h-365v210q0 52 -15 87.5t-65 35.5q-88 0 -88 -125v-727q0 -46 20 -84.5t66 -38.5q47 0 65.5 37.5t18.5 87.5v252h363v-262q0 -124 -55.5 -212.5
t-152.5 -135.5t-222 -47zM1078 0v1760h368v-409q29 84 89 124.5t140 40.5q156 0 227 -98t71 -263v-1155h-362v1132q0 49 -20.5 80t-64.5 31q-37 0 -58.5 -32t-21.5 -76v-1135h-368z" />
    <glyph glyph-name="c_t" horiz-adv-x="1631" 
d="M523 -16q-252 0 -357.5 129t-105.5 379v462q0 188 40 313t140 187t278 62q124 0 222.5 -44t155.5 -129t57 -208v-229h-365v210q0 52 -15 87.5t-65 35.5q-88 0 -88 -125v-727q0 -46 20 -84.5t66 -38.5q47 0 65.5 37.5t18.5 87.5v252h363v-262q0 -124 -55.5 -212.5
t-152.5 -135.5t-222 -47zM1386 -16q-145 0 -195.5 61.5t-50.5 188.5v935h-101v273h101v318h348v-318h101v-273h-101v-851q0 -37 12 -52t46 -15q24 0 43 4v-244q-12 -4 -75 -15.5t-128 -11.5z" />
    <glyph glyph-name="cacute" unicode="&#x107;" horiz-adv-x="1006" 
d="M523 -16q-252 0 -357.5 129t-105.5 379v462q0 188 40 313t140 187t278 62q124 0 222.5 -44t155.5 -129t57 -208v-229h-365v210q0 52 -15 87.5t-65 35.5q-88 0 -88 -125v-727q0 -46 20 -84.5t66 -38.5q47 0 65.5 37.5t18.5 87.5v252h363v-262q0 -124 -55.5 -212.5
t-152.5 -135.5t-222 -47zM277 1553v223l475 218v-347z" />
    <glyph glyph-name="cacute.sc" horiz-adv-x="971" 
d="M488 -16q-191 0 -307.5 119t-116.5 333v612q0 256 101.5 392t330.5 136q125 0 222.5 -46t153.5 -137.5t56 -230.5v-280h-350v246q0 79 -20 106.5t-62 27.5q-49 0 -66 -35.5t-17 -94.5v-701q0 -73 21.5 -103t61.5 -30q45 0 63.5 37t18.5 96v227h354v-233
q0 -232 -117 -336.5t-327 -104.5zM259 1627v193l475 168v-287z" />
    <glyph glyph-name="uni0310" unicode="&#x310;" 
d="M-178 2006v258h358v-258h-358zM-1 1592q-175 0 -283.5 67t-108.5 214q0 21 3 42h256q0 -62 29 -94t106 -32t106 32t29 94h256q1 -10 1.5 -20t0.5 -15q0 -151 -107.5 -219.5t-287.5 -68.5z" />
    <glyph glyph-name="caron" unicode="&#x2c7;" horiz-adv-x="970" 
d="M281 1591l-241 403h359l86 -285l86 285h359l-241 -403h-408z" />
    <glyph glyph-name="uni030C" unicode="&#x30c;" 
d="M-204 1591l-241 403h359l86 -285l86 285h359l-241 -403h-408z" />
    <glyph glyph-name="uni030C.alt" 
d="M597 1226l76 236h-75v298h312v-289l-102 -245h-211z" />
    <glyph glyph-name="uni030C.case" 
d="M-445 2044h359l86 -215l86 215h359l-241 -333h-408z" />
    <glyph glyph-name="ccaron" unicode="&#x10d;" horiz-adv-x="1006" 
d="M523 -16q-252 0 -357.5 129t-105.5 379v462q0 188 40 313t140 187t278 62q124 0 222.5 -44t155.5 -129t57 -208v-229h-365v210q0 52 -15 87.5t-65 35.5q-88 0 -88 -125v-727q0 -46 20 -84.5t66 -38.5q47 0 65.5 37.5t18.5 87.5v252h363v-262q0 -124 -55.5 -212.5
t-152.5 -135.5t-222 -47zM311 1591l-241 403h359l86 -285l86 285h359l-241 -403h-408z" />
    <glyph glyph-name="ccaron.sc" horiz-adv-x="971" 
d="M488 -16q-191 0 -307.5 119t-116.5 333v612q0 256 101.5 392t330.5 136q125 0 222.5 -46t153.5 -137.5t56 -230.5v-280h-350v246q0 79 -20 106.5t-62 27.5q-49 0 -66 -35.5t-17 -94.5v-701q0 -73 21.5 -103t61.5 -30q45 0 63.5 37t18.5 96v227h354v-233
q0 -232 -117 -336.5t-327 -104.5zM51 2024h359l86 -215l86 215h359l-241 -333h-408z" />
    <glyph glyph-name="ccedilla" unicode="&#xe7;" horiz-adv-x="1006" 
d="M523 -16q-252 0 -357.5 129t-105.5 379v462q0 188 40 313t140 187t278 62q124 0 222.5 -44t155.5 -129t57 -208v-229h-365v210q0 52 -15 87.5t-65 35.5q-88 0 -88 -125v-727q0 -46 20 -84.5t66 -38.5q47 0 65.5 37.5t18.5 87.5v252h363v-262q0 -124 -55.5 -212.5
t-152.5 -135.5t-222 -47zM488 -631q-103 0 -198 40v223q31 -10 61 -16.5t57 -6.5q50 0 83.5 26.5t33.5 91.5q0 56 -27.5 128t-76.5 145h161q97 -85 150.5 -189.5t53.5 -197.5q0 -103 -71 -173.5t-227 -70.5z" />
    <glyph glyph-name="ccedilla.sc" horiz-adv-x="971" 
d="M488 -16q-191 0 -307.5 119t-116.5 333v612q0 256 101.5 392t330.5 136q125 0 222.5 -46t153.5 -137.5t56 -230.5v-280h-350v246q0 79 -20 106.5t-62 27.5q-49 0 -66 -35.5t-17 -94.5v-701q0 -73 21.5 -103t61.5 -30q45 0 63.5 37t18.5 96v227h354v-233
q0 -232 -117 -336.5t-327 -104.5zM477 -631q-103 0 -198 40v223q31 -10 61 -16.5t57 -6.5q50 0 83.5 26.5t33.5 91.5q0 56 -27.5 128t-76.5 145h161q97 -85 150.5 -189.5t53.5 -197.5q0 -103 -71 -173.5t-227 -70.5z" />
    <glyph glyph-name="uni1E09" unicode="&#x1e09;" horiz-adv-x="1006" 
d="M523 -16q-252 0 -357.5 129t-105.5 379v462q0 188 40 313t140 187t278 62q124 0 222.5 -44t155.5 -129t57 -208v-229h-365v210q0 52 -15 87.5t-65 35.5q-88 0 -88 -125v-727q0 -46 20 -84.5t66 -38.5q47 0 65.5 37.5t18.5 87.5v252h363v-262q0 -124 -55.5 -212.5
t-152.5 -135.5t-222 -47zM488 -631q-103 0 -198 40v223q31 -10 61 -16.5t57 -6.5q50 0 83.5 26.5t33.5 91.5q0 56 -27.5 128t-76.5 145h161q97 -85 150.5 -189.5t53.5 -197.5q0 -103 -71 -173.5t-227 -70.5zM278 1553v223l475 218v-347z" />
    <glyph glyph-name="uni1E09.sc" horiz-adv-x="971" 
d="M488 -16q-191 0 -307.5 119t-116.5 333v612q0 256 101.5 392t330.5 136q125 0 222.5 -46t153.5 -137.5t56 -230.5v-280h-350v246q0 79 -20 106.5t-62 27.5q-49 0 -66 -35.5t-17 -94.5v-701q0 -73 21.5 -103t61.5 -30q45 0 63.5 37t18.5 96v227h354v-233
q0 -232 -117 -336.5t-327 -104.5zM476 -631q-103 0 -198 40v223q31 -10 61 -16.5t57 -6.5q50 0 83.5 26.5t33.5 91.5q0 56 -27.5 128t-76.5 145h161q97 -85 150.5 -189.5t53.5 -197.5q0 -103 -71 -173.5t-227 -70.5zM259 1627v193l475 168v-287z" />
    <glyph glyph-name="ccircumflex" unicode="&#x109;" horiz-adv-x="1006" 
d="M523 -16q-252 0 -357.5 129t-105.5 379v462q0 188 40 313t140 187t278 62q124 0 222.5 -44t155.5 -129t57 -208v-229h-365v210q0 52 -15 87.5t-65 35.5q-88 0 -88 -125v-727q0 -46 20 -84.5t66 -38.5q47 0 65.5 37.5t18.5 87.5v252h363v-262q0 -124 -55.5 -212.5
t-152.5 -135.5t-222 -47zM70 1591l241 403h408l241 -403h-359l-86 285l-86 -285h-359z" />
    <glyph glyph-name="ccircumflex.sc" horiz-adv-x="971" 
d="M488 -16q-191 0 -307.5 119t-116.5 333v612q0 256 101.5 392t330.5 136q125 0 222.5 -46t153.5 -137.5t56 -230.5v-280h-350v246q0 79 -20 106.5t-62 27.5q-49 0 -66 -35.5t-17 -94.5v-701q0 -73 21.5 -103t61.5 -30q45 0 63.5 37t18.5 96v227h354v-233
q0 -232 -117 -336.5t-327 -104.5zM51 1691l241 333h408l241 -333h-359l-86 215l-86 -215h-359z" />
    <glyph glyph-name="cdotaccent" unicode="&#x10b;" horiz-adv-x="1006" 
d="M523 -16q-252 0 -357.5 129t-105.5 379v462q0 188 40 313t140 187t278 62q124 0 222.5 -44t155.5 -129t57 -208v-229h-365v210q0 52 -15 87.5t-65 35.5q-88 0 -88 -125v-727q0 -46 20 -84.5t66 -38.5q47 0 65.5 37.5t18.5 87.5v252h363v-262q0 -124 -55.5 -212.5
t-152.5 -135.5t-222 -47zM336 1592v298h358v-298h-358z" />
    <glyph glyph-name="cdotaccent.sc" horiz-adv-x="971" 
d="M488 -16q-191 0 -307.5 119t-116.5 333v612q0 256 101.5 392t330.5 136q125 0 222.5 -46t153.5 -137.5t56 -230.5v-280h-350v246q0 79 -20 106.5t-62 27.5q-49 0 -66 -35.5t-17 -94.5v-701q0 -73 21.5 -103t61.5 -30q45 0 63.5 37t18.5 96v227h354v-233
q0 -232 -117 -336.5t-327 -104.5zM317 1682v258h358v-258h-358z" />
    <glyph glyph-name="uni20B5" unicode="&#x20b5;" horiz-adv-x="986" 
d="M422 -163v150q-205 23 -289.5 151t-84.5 354v462q0 170 32.5 290t114 188t227.5 82v163h173v-166q148 -21 247 -116.5t99 -259.5v-256h-365v237q0 52 -15 87.5t-65 35.5q-88 0 -88 -125v-727q0 -46 20 -84.5t66 -38.5q47 0 65.5 37.5t18.5 87.5v225h363v-235
q0 -168 -98 -269t-248 -122v-151h-173z" />
    <glyph glyph-name="cedilla" unicode="&#xb8;" horiz-adv-x="576" 
d="M238 -631q-103 0 -198 40v223q31 -10 61 -16.5t57 -6.5q50 0 83.5 26.5t33.5 91.5q0 56 -27.5 128t-76.5 145h161q97 -85 150.5 -189.5t53.5 -197.5q0 -103 -71 -173.5t-227 -70.5z" />
    <glyph glyph-name="uni0327" unicode="&#x327;" 
d="M-252 -631q-103 0 -198 40v223q31 -10 61 -16.5t57 -6.5q50 0 83.5 26.5t33.5 91.5q0 56 -27.5 128t-76.5 145h161q97 -85 150.5 -189.5t53.5 -197.5q0 -103 -71 -173.5t-227 -70.5z" />
    <glyph glyph-name="uni0327.case" 
d="M-252 -631q-103 0 -198 40v223q31 -10 61 -16.5t57 -6.5q50 0 83.5 26.5t33.5 91.5q0 56 -27.5 128t-76.5 145h161q97 -85 150.5 -189.5t53.5 -197.5q0 -103 -71 -173.5t-227 -70.5z" />
    <glyph glyph-name="cent" unicode="&#xa2;" horiz-adv-x="986" 
d="M422 -163v150q-205 23 -289.5 151t-84.5 354v462q0 170 32.5 290t114 188t227.5 82v163h173v-166q148 -21 247 -116.5t99 -259.5v-256h-365v237q0 52 -15 87.5t-65 35.5q-88 0 -88 -125v-727q0 -46 20 -84.5t66 -38.5q47 0 65.5 37.5t18.5 87.5v225h363v-235
q0 -168 -98 -269t-248 -122v-151h-173z" />
    <glyph glyph-name="uniAB53" unicode="&#xab53;" horiz-adv-x="940" 
d="M930 -260q-110 0 -186 20.5t-129.5 70.5t-94.5 137t-82 220l-14 47l-145 -485h-271l293 953l-109 355q-34 110 -64.5 147t-87.5 37v274q150 0 240.5 -34.5t148 -121t108.5 -244.5l117 385h266l-262 -846l140 -457q34 -110 59 -147t73 -37v-274z" />
    <glyph glyph-name="uni0188" unicode="&#x188;" horiz-adv-x="1049" 
d="M523 -16q-252 0 -357.5 129t-105.5 379v462q0 188 40 313t140 187t278 62q85 0 146 -21q35 119 133.5 197t261.5 78v-276q-106 0 -106 -132v-456h-365v210q0 52 -15 87.5t-65 35.5q-88 0 -88 -125v-727q0 -46 20 -84.5t66 -38.5q47 0 65.5 37.5t18.5 87.5v252h363v-262
q0 -124 -55.5 -212.5t-152.5 -135.5t-222 -47z" />
    <glyph glyph-name="circumflex" unicode="&#x2c6;" horiz-adv-x="970" 
d="M40 1591l241 403h408l241 -403h-359l-86 285l-86 -285h-359z" />
    <glyph glyph-name="uni032D" unicode="&#x32d;" 
d="M-445 -512l241 403h408l241 -403h-359l-86 285l-86 -285h-359z" />
    <glyph glyph-name="uni0302" unicode="&#x302;" 
d="M-445 1591l241 403h408l241 -403h-359l-86 285l-86 -285h-359z" />
    <glyph glyph-name="uni0302.case" 
d="M-445 1601l241 333h408l241 -333h-359l-86 215l-86 -215h-359z" />
    <glyph glyph-name="uni03020301" 
d="M314 1832l164 295h307l-238 -295h-233zM-445 1591l241 303h408l241 -303h-355l-90 195l-90 -195h-355z" />
    <glyph glyph-name="uni03020301.case" 
d="M289 2000l114 204h307l-188 -204h-233zM-384 1839l237 254h294l237 -254h-285l-99 135l-99 -135h-285z" />
    <glyph glyph-name="uni03020300" 
d="M372 1832l-238 295h307l164 -295h-233zM-445 1591l241 303h408l241 -303h-355l-90 195l-90 -195h-355z" />
    <glyph glyph-name="uni03020300.case" 
d="M356 2000l-188 204h307l114 -204h-233zM-384 1839l237 254h294l237 -254h-285l-99 135l-99 -135h-285z" />
    <glyph glyph-name="uni03020309" 
d="M361 1797l-106 124q54 20 87 50t33 80q0 95 -101 95q-47 0 -90 -16v180q88 33 183 33q125 0 195.5 -62.5t70.5 -175.5q0 -127 -78 -199.5t-194 -108.5zM-395 1591l221 313h348l221 -313h-305l-90 195l-90 -195h-305z" />
    <glyph glyph-name="uni03020309.case" 
d="M370 1959l-66 77q34 13 54.5 31.5t20.5 49.5q0 59 -63 59q-28 0 -56 -10v112q57 21 114 21q77 0 121 -39t44 -109q0 -79 -48.5 -124t-120.5 -68zM-384 1839l237 254h294l237 -254h-285l-99 135l-99 -135h-285z" />
    <glyph glyph-name="uni03020303" 
d="M165 1969q-60 0 -112.5 23t-102.5 45.5t-103 22.5q-32 0 -60 -15t-52 -53l-148 78q35 86 82.5 148t147.5 62q62 0 114.5 -22.5t101.5 -45.5t102 -23q38 0 62.5 17t49.5 58l166 -54q-24 -62 -53 -117.5t-74.5 -89.5t-120.5 -34zM-445 1591l241 303h408l241 -303h-355
l-90 195l-90 -195h-355z" />
    <glyph glyph-name="uni03020303.case" 
d="M120 2142q-45 0 -84.5 17t-77 34t-77.5 17q-24 0 -45 -11t-39 -40l-111 58q26 65 62 111.5t111 46.5q47 0 86 -17t76 -34t77 -17q50 0 84 56l125 -40q-28 -70 -65 -125.5t-122 -55.5zM-384 1839l237 254h294l237 -254h-285l-99 135l-99 -135h-285z" />
    <glyph glyph-name="uni01C2" unicode="&#x1c2;" horiz-adv-x="683" 
d="M173 -186v534h-183v296h183v294h-183v296h183v526h340v-526h180v-296h-180v-294h180v-296h-180v-534h-340z" />
    <glyph glyph-name="uni01C0" unicode="&#x1c0;" horiz-adv-x="464" 
d="M62 -186v1946h340v-1946h-340z" />
    <glyph glyph-name="uni01C1" unicode="&#x1c1;" horiz-adv-x="1004" 
d="M62 -186v1946h340v-1946h-340zM602 -186v1946h340v-1946h-340z" />
    <glyph glyph-name="uni01C3" unicode="&#x1c3;" horiz-adv-x="469" 
d="M125 479l-70 1281h358l-70 -1281h-218zM55 1v298h358v-298h-358z" />
    <glyph glyph-name="colon" unicode=":" horiz-adv-x="495" 
d="M68 976v298h358v-298h-358zM68 237v298h358v-298h-358z" />
    <glyph glyph-name="uniA789" unicode="&#xa789;" horiz-adv-x="495" 
d="M68 976v298h358v-298h-358zM68 237v298h358v-298h-358z" />
    <glyph glyph-name="colonmonetary" unicode="&#x20a1;" horiz-adv-x="1042" 
d="M173 -113l46 221q-91 109 -91 283v738q0 231 94 351t305 120l16 79h105l-18 -88q37 -8 71 -21l22 109h105l-34 -164q54 -45 84 -115.5t30 -167.5v-280h-230l-150 -724q67 4 96.5 53.5t29.5 126.5v274h261v-301q0 -208 -105 -305t-290 -97q-22 0 -43 2l-19 -94h-105
l24 114q-37 12 -69 31l-30 -145h-105zM384 1161v-252l88 426q-55 -14 -71.5 -60.5t-16.5 -113.5zM384 401q2 -104 45 -144l208 1007q-18 50 -61 67z" />
    <glyph glyph-name="comma" unicode="," horiz-adv-x="484" 
d="M116 -235l66 236h-127v298h374v-289l-102 -245h-211z" />
    <glyph glyph-name="comma.dnom" horiz-adv-x="464" 
d="M107 -215l60 215h-95v271h320v-263l-93 -223h-192z" />
    <glyph glyph-name="comma.numr" horiz-adv-x="464" 
d="M107 926l60 215h-95v271h320v-263l-93 -223h-192z" />
    <glyph glyph-name="comma.sups" horiz-adv-x="464" 
d="M107 996l60 215h-95v271h320v-263l-93 -223h-192z" />
    <glyph glyph-name="uni0313" unicode="&#x313;" 
d="M-187 1656v289l102 245h211l-66 -236h127v-298h-374z" />
    <glyph glyph-name="uni0326" unicode="&#x326;" 
d="M-138 -643l66 236h-127v298h374v-289l-102 -245h-211z" />
    <glyph glyph-name="uni0326.alt" 
d="M126 1725v289l102 245h211l-66 -236h127v-298h-374z" />
    <glyph glyph-name="uni0326.case" 
d="M-138 -643l66 236h-127v298h374v-289l-102 -245h-211z" />
    <glyph glyph-name="uni0312" unicode="&#x312;" 
d="M-187 1656v289l102 245h211l-66 -236h127v-298h-374z" />
    <glyph glyph-name="uni0312.case" 
d="M-187 1766v289l102 245h211l-66 -236h127v-298h-374z" />
    <glyph glyph-name="uni02BB" unicode="&#x2bb;" horiz-adv-x="600" 
d="M104 966v289l102 245h211l-66 -236h127v-298h-374z" />
    <glyph glyph-name="uni2052" unicode="&#x2052;" horiz-adv-x="980" 
d="M55 1462v298h308v-298h-308zM159 0l410 1760h254l-411 -1760h-253zM617 0v298h308v-298h-308z" />
    <glyph glyph-name="copyright" unicode="&#xa9;" horiz-adv-x="1382" 
d="M691 205q-140 0 -259.5 49.5t-209 139t-139 209t-49.5 259.5t49.5 259.5t139 209t209 139t259.5 49.5t259.5 -49.5t209 -139t139 -209t49.5 -259.5t-49.5 -259.5t-139 -209t-209 -139t-259.5 -49.5zM691 334q145 0 257 71.5t176.5 191.5t64.5 265q0 146 -64.5 265.5
t-176.5 191t-257 71.5q-144 0 -256.5 -71.5t-177 -191t-64.5 -265.5q0 -145 64.5 -265t177 -191.5t256.5 -71.5zM685 424q-104 0 -167 59t-63 165v401q0 126 55 191t179 65q101 0 168 -49.5t67 -150.5v-153h-189v101q0 77 -46 77q-28 0 -36 -17.5t-8 -46.5v-409
q0 -22 11.5 -43.5t32.5 -21.5q46 0 46 65v149h193v-163q0 -219 -243 -219z" />
    <glyph glyph-name="uni023C" unicode="&#x23c;" horiz-adv-x="1006" 
d="M201 -186l58 224q-106 57 -152.5 171t-46.5 283v462q0 188 40 313t140 187t278 62q65 0 123 -12l65 256h140l-76 -303q84 -46 133.5 -127.5t49.5 -194.5v-229h-365v210q0 52 -15 87.5t-65 35.5q-88 0 -88 -125v-727q0 -46 20 -84.5t66 -38.5q47 0 65.5 37.5t18.5 87.5
v252h363v-262q0 -124 -55.5 -212.5t-152.5 -135.5t-222 -47q-74 0 -135 11l-47 -181h-140z" />
    <glyph glyph-name="currency" unicode="&#xa4;" horiz-adv-x="1000" 
d="M194 509l-149 150l91 91q-53 98 -53 214q0 117 52 214l-90 90l149 150l87 -88q97 55 218 55t218 -54l87 87l150 -149l-90 -90q54 -97 54 -215t-54 -216l90 -90l-150 -149l-89 88q-92 -52 -216 -52t-216 53zM499 741q95 0 152 66t57 159q0 95 -56 157.5t-153 62.5
q-94 0 -151 -65t-57 -157q0 -93 56.5 -158t151.5 -65z" />
    <glyph glyph-name="d" unicode="d" horiz-adv-x="1020" 
d="M367 -16q-104 0 -165 38t-91 105t-39.5 157t-9.5 193v652q0 173 61.5 280t208.5 107q109 0 167.5 -46.5t90.5 -129.5v420h364v-1760h-364v159q-30 -81 -79.5 -128t-143.5 -47zM504 264q51 0 68.5 41t17.5 147v631q0 53 -15.5 104.5t-68.5 51.5q-58 0 -73 -49t-15 -107
v-631q0 -188 86 -188z" />
    <glyph glyph-name="d.sc" horiz-adv-x="1010" 
d="M78 0v1560h485q190 0 285.5 -105.5t95.5 -308.5v-624q0 -250 -87 -386t-306 -136h-473zM432 311h61q97 0 97 94v708q0 88 -23.5 113.5t-95.5 25.5h-39v-941z" />
    <glyph glyph-name="dagger" unicode="&#x2020;" horiz-adv-x="789" 
d="M214 0v996h-183v296h183v300h364v-300h180v-296h-180v-996h-364z" />
    <glyph glyph-name="daggerdbl" unicode="&#x2021;" horiz-adv-x="807" 
d="M223 0v350h-183v296h183v294h-183v296h183v356h364v-356h180v-296h-180v-294h180v-296h-180v-350h-364z" />
    <glyph glyph-name="uni030F" unicode="&#x30f;" 
d="M-197 1586l-289 429l234 108l221 -479zM105 1586l-248 429l230 108l184 -479z" />
    <glyph glyph-name="uni030F.case" 
d="M-197 1586l-289 429l234 108l221 -479zM105 1586l-248 429l230 108l184 -479z" />
    <glyph glyph-name="dcaron" unicode="&#x10f;" horiz-adv-x="1344" 
d="M367 -16q-104 0 -165 38t-91 105t-39.5 157t-9.5 193v652q0 173 61.5 280t208.5 107q109 0 167.5 -46.5t90.5 -129.5v420h364v-1760h-364v159q-30 -81 -79.5 -128t-143.5 -47zM504 264q51 0 68.5 41t17.5 147v631q0 53 -15.5 104.5t-68.5 51.5q-58 0 -73 -49t-15 -107
v-631q0 -188 86 -188zM1031 1226l76 236h-75v298h312v-289l-102 -245h-211z" />
    <glyph glyph-name="dcaron.sc" horiz-adv-x="1010" 
d="M78 0v1560h485q190 0 285.5 -105.5t95.5 -308.5v-624q0 -250 -87 -386t-306 -136h-473zM432 311h61q97 0 97 94v708q0 88 -23.5 113.5t-95.5 25.5h-39v-941zM60 2024h359l86 -215l86 215h359l-241 -333h-408z" />
    <glyph glyph-name="uni1E11" unicode="&#x1e11;" horiz-adv-x="1020" 
d="M367 -16q-104 0 -165 38t-91 105t-39.5 157t-9.5 193v652q0 173 61.5 280t208.5 107q109 0 167.5 -46.5t90.5 -129.5v420h364v-1760h-364v159q-30 -81 -79.5 -128t-143.5 -47zM504 264q51 0 68.5 41t17.5 147v631q0 53 -15.5 104.5t-68.5 51.5q-58 0 -73 -49t-15 -107
v-631q0 -188 86 -188zM413 -643l66 236h-127v298h374v-289l-102 -245h-211z" />
    <glyph glyph-name="uni1E13" unicode="&#x1e13;" horiz-adv-x="1020" 
d="M367 -16q-104 0 -165 38t-91 105t-39.5 157t-9.5 193v652q0 173 61.5 280t208.5 107q109 0 167.5 -46.5t90.5 -129.5v420h364v-1760h-364v159q-30 -81 -79.5 -128t-143.5 -47zM504 264q51 0 68.5 41t17.5 147v631q0 53 -15.5 104.5t-68.5 51.5q-58 0 -73 -49t-15 -107
v-631q0 -188 86 -188zM107 -512l241 403h408l241 -403h-359l-86 285l-86 -285h-359z" />
    <glyph glyph-name="dcroat" unicode="&#x111;" horiz-adv-x="1020" 
d="M367 -16q-104 0 -165 38t-91 105t-39.5 157t-9.5 193v652q0 173 61.5 280t208.5 107q109 0 167.5 -46.5t90.5 -129.5v192h-168v153h168v75h364v-75h118v-153h-118v-1532h-364v159q-30 -81 -79.5 -128t-143.5 -47zM504 264q51 0 68.5 41t17.5 147v631q0 53 -15.5 104.5
t-68.5 51.5q-58 0 -73 -49t-15 -107v-631q0 -188 86 -188z" />
    <glyph glyph-name="dcroat.sc" horiz-adv-x="1010" 
d="M78 0v694h-76v232h76v634h485q190 0 285.5 -105.5t95.5 -308.5v-624q0 -250 -87 -386t-306 -136h-473zM432 311h61q97 0 97 94v708q0 88 -23.5 113.5t-95.5 25.5h-39v-326h84v-232h-84v-383z" />
    <glyph glyph-name="uni1E0B" unicode="&#x1e0b;" horiz-adv-x="1020" 
d="M367 -16q-104 0 -165 38t-91 105t-39.5 157t-9.5 193v652q0 173 61.5 280t208.5 107q109 0 167.5 -46.5t90.5 -129.5v420h364v-1760h-364v159q-30 -81 -79.5 -128t-143.5 -47zM504 264q51 0 68.5 41t17.5 147v631q0 53 -15.5 104.5t-68.5 51.5q-58 0 -73 -49t-15 -107
v-631q0 -188 86 -188zM140 1619v298h358v-298h-358z" />
    <glyph glyph-name="uni1E0D" unicode="&#x1e0d;" horiz-adv-x="1020" 
d="M367 -16q-104 0 -165 38t-91 105t-39.5 157t-9.5 193v652q0 173 61.5 280t208.5 107q109 0 167.5 -46.5t90.5 -129.5v420h364v-1760h-364v159q-30 -81 -79.5 -128t-143.5 -47zM504 264q51 0 68.5 41t17.5 147v631q0 53 -15.5 104.5t-68.5 51.5q-58 0 -73 -49t-15 -107
v-631q0 -188 86 -188zM373 -417v298h358v-298h-358z" />
    <glyph glyph-name="uni1E0D.sc" horiz-adv-x="1010" 
d="M78 0v1560h485q190 0 285.5 -105.5t95.5 -308.5v-624q0 -250 -87 -386t-306 -136h-473zM432 311h61q97 0 97 94v708q0 88 -23.5 113.5t-95.5 25.5h-39v-941zM326 -417v298h358v-298h-358z" />
    <glyph glyph-name="degree" unicode="&#xb0;" horiz-adv-x="796" 
d="M397 931q-160 0 -256.5 89.5t-96.5 248.5q0 158 96.5 248t256.5 90q161 0 257.5 -90t96.5 -248t-96.5 -248t-257.5 -90zM398 1112q67 0 104.5 46t37.5 111t-37.5 111t-104.5 46t-104.5 -46t-37.5 -111t37.5 -111t104.5 -46z" />
    <glyph glyph-name="uni0257" unicode="&#x257;" horiz-adv-x="1020" 
d="M367 -16q-104 0 -165 38t-91 105t-39.5 157t-9.5 193v652q0 173 61.5 280t208.5 107q109 0 167.5 -46.5t90.5 -128.5v37q0 126 39.5 215t137.5 136t273 47v-276q-49 0 -67.5 -33.5t-18.5 -98.5v-1368h-364v159q-30 -81 -79.5 -128t-143.5 -47zM504 264q51 0 68.5 47
t17.5 141v631q0 53 -15.5 104.5t-68.5 51.5q-58 0 -73 -49t-15 -107v-631q0 -188 86 -188z" />
    <glyph glyph-name="dieresis" unicode="&#xa8;" horiz-adv-x="976" 
d="M550 1599v298h358v-298h-358zM66 1599v298h358v-298h-358z" />
    <glyph glyph-name="uni0324" unicode="&#x324;" 
d="M63 -417v298h358v-298h-358zM-421 -417v298h358v-298h-358z" />
    <glyph glyph-name="uni0324.case" 
d="M63 -467v248h358v-248h-358zM-421 -467v248h358v-248h-358z" />
    <glyph glyph-name="uni0308" unicode="&#x308;" 
d="M63 1599v298h358v-298h-358zM-421 1599v298h358v-298h-358z" />
    <glyph glyph-name="uni0308.case" 
d="M63 1599v248h358v-248h-358zM-421 1599v248h358v-248h-358z" />
    <glyph glyph-name="divide" unicode="&#xf7;" horiz-adv-x="684" 
d="M193 976v298h298v-298h-298zM34 638v232h616v-232h-616zM193 237v298h298v-298h-298z" />
    <glyph glyph-name="uni2215" unicode="&#x2215;" horiz-adv-x="722" 
d="M29 0l410 1760h254l-411 -1760h-253z" />
    <glyph glyph-name="uni1E0F" unicode="&#x1e0f;" horiz-adv-x="1020" 
d="M367 -16q-104 0 -165 38t-91 105t-39.5 157t-9.5 193v652q0 173 61.5 280t208.5 107q109 0 167.5 -46.5t90.5 -129.5v420h364v-1760h-364v159q-30 -81 -79.5 -128t-143.5 -47zM504 264q51 0 68.5 41t17.5 147v631q0 53 -15.5 104.5t-68.5 51.5q-58 0 -73 -49t-15 -107
v-631q0 -188 86 -188zM227 -272v153h650v-153h-650z" />
    <glyph glyph-name="uni1E0F.sc" horiz-adv-x="1010" 
d="M78 0v1560h485q190 0 285.5 -105.5t95.5 -308.5v-624q0 -250 -87 -386t-306 -136h-473zM432 311h61q97 0 97 94v708q0 88 -23.5 113.5t-95.5 25.5h-39v-941zM180 -272v153h650v-153h-650z" />
    <glyph glyph-name="dollar" unicode="$" horiz-adv-x="946" 
d="M384 -113v149q-188 22 -269 132t-81 320v55h348v-42q0 -154 97 -154q42 0 61.5 26t19.5 61q0 62 -63 126l-287 289q-158 158 -158 343q0 100 45.5 176.5t121 125t165.5 64.5v121h173v-118q171 -22 260 -141t89 -315h-357v65q0 43 -23 66t-61 23q-42 0 -63 -21t-21 -56
q0 -50 99 -148l280 -276q62 -61 106.5 -148t44.5 -197q0 -165 -101 -263.5t-253 -115.5v-147h-173z" />
    <glyph glyph-name="dong" unicode="&#x20ab;" horiz-adv-x="1042" 
d="M365 -18q-125 0 -183.5 60t-75 161.5t-16.5 226.5v491q0 138 71 234t210 96q130 0 196 -90v170h-274v167h274v98h324v-98h63v-167h-63v-1333h-324v144q-27 -73 -72 -116.5t-130 -43.5zM489 237q44 0 61 42t17 129v449q0 48 -14.5 95t-61.5 47q-52 0 -65.5 -44.5
t-13.5 -97.5v-450q0 -170 77 -170zM108 -340v234h763v-234h-763z" />
    <glyph glyph-name="uni0358" unicode="&#x358;" 
d="M0 1592v298h358v-298h-358z" />
    <glyph glyph-name="dotaccent" unicode="&#x2d9;" horiz-adv-x="491" 
d="M67 1592v298h358v-298h-358z" />
    <glyph glyph-name="uni0307" unicode="&#x307;" 
d="M-179 1592v298h358v-298h-358z" />
    <glyph glyph-name="uni0307.case" 
d="M-179 1592v258h358v-258h-358z" />
    <glyph glyph-name="dotbelowcomb" unicode="&#x323;" 
d="M-179 -417v298h358v-298h-358z" />
    <glyph glyph-name="dotbelowcomb.case" 
d="M-179 -487v298h358v-298h-358z" />
    <glyph glyph-name="uni02EE" unicode="&#x2ee;" horiz-adv-x="1080" 
d="M183 966l66 236h-127v298h374v-289l-102 -245h-211zM663 966l66 236h-127v298h374v-289l-102 -245h-211z" />
    <glyph glyph-name="uni02BA" unicode="&#x2ba;" horiz-adv-x="1144" 
d="M553 1500l154 655h337l-278 -655h-213zM133 1500l154 655h337l-278 -655h-213z" />
    <glyph glyph-name="arrowdown" unicode="&#x2193;" horiz-adv-x="792" 
d="M396 0l-336 193v309l182 -101v1115h318v-1110l172 96v-309z" />
    <glyph glyph-name="triagdn" unicode="&#x25bc;" horiz-adv-x="1652" 
d="M826 -16l-748 1516h1496z" />
    <glyph glyph-name="uni25BD" unicode="&#x25bd;" horiz-adv-x="1652" 
d="M826 -16l-748 1516h1496zM826 425l434 880h-868z" />
    <glyph glyph-name="uni0256" unicode="&#x256;" horiz-adv-x="1020" 
d="M1040 -196q-230 0 -335.5 89.5t-112.5 270.5q-30 -83 -80 -131.5t-145 -48.5q-104 0 -165 38t-91 105t-39.5 157t-9.5 193v652q0 173 61.5 280t208.5 107q109 0 167.5 -46.5t90.5 -129.5v420h364v-1548q0 -64 18.5 -98t67.5 -34v-276zM504 264q53 0 69.5 47t16.5 141v631
q0 53 -15.5 104.5t-68.5 51.5q-58 0 -73 -49t-15 -107v-631q0 -188 86 -188z" />
    <glyph glyph-name="uni01F3" unicode="&#x1f3;" horiz-adv-x="1810" 
d="M367 -16q-104 0 -165 38t-91 105t-39.5 157t-9.5 193v652q0 173 61.5 280t208.5 107q109 0 167.5 -46.5t90.5 -129.5v420h364v-1760h-364v159q-30 -81 -79.5 -128t-143.5 -47zM504 264q51 0 68.5 41t17.5 147v631q0 53 -15.5 104.5t-68.5 51.5q-58 0 -73 -49t-15 -107
v-631q0 -188 86 -188zM1048 0v219l374 997h-356v284h727v-244l-353 -988h356v-268h-748z" />
    <glyph glyph-name="uni01C6" unicode="&#x1c6;" horiz-adv-x="1810" 
d="M367 -16q-104 0 -165 38t-91 105t-39.5 157t-9.5 193v652q0 173 61.5 280t208.5 107q109 0 167.5 -46.5t90.5 -129.5v420h364v-1760h-364v159q-30 -81 -79.5 -128t-143.5 -47zM504 264q51 0 68.5 41t17.5 147v631q0 53 -15.5 104.5t-68.5 51.5q-58 0 -73 -49t-15 -107
v-631q0 -188 86 -188zM1048 0v219l374 997h-356v284h727v-244l-353 -988h356v-268h-748zM1252 1591l-241 403h359l86 -285l86 285h359l-241 -403h-408z" />
    <glyph glyph-name="uni01C6.sc" horiz-adv-x="1850" 
d="M78 0v1560h485q190 0 285.5 -105.5t95.5 -308.5v-624q0 -250 -87 -386t-306 -136h-473zM432 311h61q97 0 97 94v708q0 88 -23.5 113.5t-95.5 25.5h-39v-941zM1042 0v320l403 916h-364v324h735v-308l-410 -928h393v-324h-757zM995 1967h359l86 -215l86 215h359l-241 -333
h-408z" />
    <glyph glyph-name="e" unicode="e" horiz-adv-x="1000" 
d="M492 -16q-160 0 -255 60t-136 173t-41 272v603q0 209 120 316.5t330 107.5q432 0 432 -424v-109q0 -198 -4 -266h-520v-290q0 -40 5 -78.5t22.5 -63.5t56.5 -25q56 0 70 48.5t14 126.5v144h356v-85q0 -168 -41.5 -281.5t-140 -171t-268.5 -57.5zM416 895h170v202
q0 81 -20 116.5t-60 35.5q-43 0 -66.5 -34t-23.5 -118v-202z" />
    <glyph glyph-name="e.sc" horiz-adv-x="843" 
d="M78 0v1560h704v-340h-346v-258h332v-331h-332v-288h369v-343h-727z" />
    <glyph glyph-name="eacute" unicode="&#xe9;" horiz-adv-x="1000" 
d="M492 -16q-160 0 -255 60t-136 173t-41 272v603q0 209 120 316.5t330 107.5q432 0 432 -424v-109q0 -198 -4 -266h-520v-290q0 -40 5 -78.5t22.5 -63.5t56.5 -25q56 0 70 48.5t14 126.5v144h356v-85q0 -168 -41.5 -281.5t-140 -171t-268.5 -57.5zM416 895h170v202
q0 81 -20 116.5t-60 35.5q-43 0 -66.5 -34t-23.5 -118v-202zM273 1553v223l475 218v-347z" />
    <glyph glyph-name="eacute.sc" horiz-adv-x="843" 
d="M78 0v1560h704v-340h-346v-258h332v-331h-332v-288h369v-343h-727zM195 1627v193l475 168v-287z" />
    <glyph glyph-name="ebreve" unicode="&#x115;" horiz-adv-x="1000" 
d="M492 -16q-160 0 -255 60t-136 173t-41 272v603q0 209 120 316.5t330 107.5q432 0 432 -424v-109q0 -198 -4 -266h-520v-290q0 -40 5 -78.5t22.5 -63.5t56.5 -25q56 0 70 48.5t14 126.5v144h356v-85q0 -168 -41.5 -281.5t-140 -171t-268.5 -57.5zM416 895h170v202
q0 81 -20 116.5t-60 35.5q-43 0 -66.5 -34t-23.5 -118v-202zM513 1592q-175 0 -283.5 74t-108.5 237q0 21 3 42h256q0 -57 29 -86.5t106 -29.5t106 29.5t29 86.5h256q1 -10 1.5 -20t0.5 -15q0 -167 -107.5 -242.5t-287.5 -75.5z" />
    <glyph glyph-name="ebreve.sc" horiz-adv-x="843" 
d="M78 0v1560h704v-340h-346v-258h332v-331h-332v-288h369v-343h-727zM431 1682q-175 0 -283.5 67t-108.5 214q0 21 3 42h256q0 -62 29 -94t106 -32t106 32t29 94h256q2 -24 2 -35q0 -151 -107.5 -219.5t-287.5 -68.5z" />
    <glyph glyph-name="ecaron" unicode="&#x11b;" horiz-adv-x="1000" 
d="M492 -16q-160 0 -255 60t-136 173t-41 272v603q0 209 120 316.5t330 107.5q432 0 432 -424v-109q0 -198 -4 -266h-520v-290q0 -40 5 -78.5t22.5 -63.5t56.5 -25q56 0 70 48.5t14 126.5v144h356v-85q0 -168 -41.5 -281.5t-140 -171t-268.5 -57.5zM416 895h170v202
q0 81 -20 116.5t-60 35.5q-43 0 -66.5 -34t-23.5 -118v-202zM306 1591l-241 403h359l86 -285l86 285h359l-241 -403h-408z" />
    <glyph glyph-name="ecaron.sc" horiz-adv-x="843" 
d="M78 0v1560h704v-340h-346v-258h332v-331h-332v-288h369v-343h-727zM-13 2024h359l86 -215l86 215h359l-241 -333h-408z" />
    <glyph glyph-name="uni0229" unicode="&#x229;" horiz-adv-x="1000" 
d="M492 -16q-160 0 -255 60t-136 173t-41 272v603q0 209 120 316.5t330 107.5q432 0 432 -424v-109q0 -198 -4 -266h-520v-290q0 -40 5 -78.5t22.5 -63.5t56.5 -25q56 0 70 48.5t14 126.5v144h356v-85q0 -168 -41.5 -281.5t-140 -171t-268.5 -57.5zM416 895h170v202
q0 81 -20 116.5t-60 35.5q-43 0 -66.5 -34t-23.5 -118v-202zM500 -631q-103 0 -198 40v223q31 -10 61 -16.5t57 -6.5q50 0 83.5 26.5t33.5 91.5q0 56 -27.5 128t-76.5 145h161q97 -85 150.5 -189.5t53.5 -197.5q0 -103 -71 -173.5t-227 -70.5z" />
    <glyph glyph-name="uni1E1D" unicode="&#x1e1d;" horiz-adv-x="1000" 
d="M492 -16q-160 0 -255 60t-136 173t-41 272v603q0 209 120 316.5t330 107.5q432 0 432 -424v-109q0 -198 -4 -266h-520v-290q0 -40 5 -78.5t22.5 -63.5t56.5 -25q56 0 70 48.5t14 126.5v144h356v-85q0 -168 -41.5 -281.5t-140 -171t-268.5 -57.5zM416 895h170v202
q0 81 -20 116.5t-60 35.5q-43 0 -66.5 -34t-23.5 -118v-202zM501 -631q-103 0 -198 40v223q31 -10 61 -16.5t57 -6.5q50 0 83.5 26.5t33.5 91.5q0 56 -27.5 128t-76.5 145h161q97 -85 150.5 -189.5t53.5 -197.5q0 -103 -71 -173.5t-227 -70.5zM513 1592q-175 0 -283.5 74
t-108.5 237q0 21 3 42h256q0 -57 29 -86.5t106 -29.5t106 29.5t29 86.5h256q1 -10 1.5 -20t0.5 -15q0 -167 -107.5 -242.5t-287.5 -75.5z" />
    <glyph glyph-name="uni1E1D.sc" horiz-adv-x="843" 
d="M78 0v1560h704v-340h-346v-258h332v-331h-332v-288h369v-343h-727zM435 -631q-103 0 -198 40v223q31 -10 61 -16.5t57 -6.5q50 0 83.5 26.5t33.5 91.5q0 56 -27.5 128t-76.5 145h161q97 -85 150.5 -189.5t53.5 -197.5q0 -103 -71 -173.5t-227 -70.5zM431 1682
q-175 0 -283.5 67t-108.5 214q0 21 3 42h256q0 -62 29 -94t106 -32t106 32t29 94h256q2 -24 2 -35q0 -151 -107.5 -219.5t-287.5 -68.5z" />
    <glyph glyph-name="ecircumflex" unicode="&#xea;" horiz-adv-x="1000" 
d="M492 -16q-160 0 -255 60t-136 173t-41 272v603q0 209 120 316.5t330 107.5q432 0 432 -424v-109q0 -198 -4 -266h-520v-290q0 -40 5 -78.5t22.5 -63.5t56.5 -25q56 0 70 48.5t14 126.5v144h356v-85q0 -168 -41.5 -281.5t-140 -171t-268.5 -57.5zM416 895h170v202
q0 81 -20 116.5t-60 35.5q-43 0 -66.5 -34t-23.5 -118v-202zM65 1591l241 403h408l241 -403h-359l-86 285l-86 -285h-359z" />
    <glyph glyph-name="ecircumflex.sc" horiz-adv-x="843" 
d="M78 0v1560h704v-340h-346v-258h332v-331h-332v-288h369v-343h-727zM-13 1691l241 333h408l241 -333h-359l-86 215l-86 -215h-359z" />
    <glyph glyph-name="uni1EBF" unicode="&#x1ebf;" horiz-adv-x="1000" 
d="M492 -16q-160 0 -255 60t-136 173t-41 272v603q0 209 120 316.5t330 107.5q432 0 432 -424v-109q0 -198 -4 -266h-520v-290q0 -40 5 -78.5t22.5 -63.5t56.5 -25q56 0 70 48.5t14 126.5v144h356v-85q0 -168 -41.5 -281.5t-140 -171t-268.5 -57.5zM416 895h170v202
q0 81 -20 116.5t-60 35.5q-43 0 -66.5 -34t-23.5 -118v-202zM824 1832l164 295h307l-238 -295h-233zM65 1591l241 303h408l241 -303h-355l-90 195l-90 -195h-355z" />
    <glyph glyph-name="uni1EBF.sc" horiz-adv-x="843" 
d="M78 0v1560h704v-340h-346v-258h332v-331h-332v-288h369v-343h-727zM746 1922l164 295h307l-238 -295h-233zM-13 1681l241 303h408l241 -303h-355l-90 195l-90 -195h-355z" />
    <glyph glyph-name="uni1E19" unicode="&#x1e19;" horiz-adv-x="1000" 
d="M492 -16q-160 0 -255 60t-136 173t-41 272v603q0 209 120 316.5t330 107.5q432 0 432 -424v-109q0 -198 -4 -266h-520v-290q0 -40 5 -78.5t22.5 -63.5t56.5 -25q56 0 70 48.5t14 126.5v144h356v-85q0 -168 -41.5 -281.5t-140 -171t-268.5 -57.5zM416 895h170v202
q0 81 -20 116.5t-60 35.5q-43 0 -66.5 -34t-23.5 -118v-202zM50 -512l241 403h408l241 -403h-359l-86 285l-86 -285h-359z" />
    <glyph glyph-name="uni1EC7" unicode="&#x1ec7;" horiz-adv-x="1000" 
d="M492 -16q-160 0 -255 60t-136 173t-41 272v603q0 209 120 316.5t330 107.5q432 0 432 -424v-109q0 -198 -4 -266h-520v-290q0 -40 5 -78.5t22.5 -63.5t56.5 -25q56 0 70 48.5t14 126.5v144h356v-85q0 -168 -41.5 -281.5t-140 -171t-268.5 -57.5zM416 895h170v202
q0 81 -20 116.5t-60 35.5q-43 0 -66.5 -34t-23.5 -118v-202zM316 -417v298h358v-298h-358zM65 1591l241 403h408l241 -403h-359l-86 285l-86 -285h-359z" />
    <glyph glyph-name="uni1EC7.sc" horiz-adv-x="843" 
d="M78 0v1560h704v-340h-346v-258h332v-331h-332v-288h369v-343h-727zM263 -417v298h358v-298h-358zM-13 1691l241 333h408l241 -333h-359l-86 215l-86 -215h-359z" />
    <glyph glyph-name="uni1EC1" unicode="&#x1ec1;" horiz-adv-x="1000" 
d="M492 -16q-160 0 -255 60t-136 173t-41 272v603q0 209 120 316.5t330 107.5q432 0 432 -424v-109q0 -198 -4 -266h-520v-290q0 -40 5 -78.5t22.5 -63.5t56.5 -25q56 0 70 48.5t14 126.5v144h356v-85q0 -168 -41.5 -281.5t-140 -171t-268.5 -57.5zM416 895h170v202
q0 81 -20 116.5t-60 35.5q-43 0 -66.5 -34t-23.5 -118v-202zM882 1832l-238 295h307l164 -295h-233zM65 1591l241 303h408l241 -303h-355l-90 195l-90 -195h-355z" />
    <glyph glyph-name="uni1EC1.sc" horiz-adv-x="843" 
d="M78 0v1560h704v-340h-346v-258h332v-331h-332v-288h369v-343h-727zM804 1922l-238 295h307l164 -295h-233zM-13 1681l241 303h408l241 -303h-355l-90 195l-90 -195h-355z" />
    <glyph glyph-name="uni1EC3" unicode="&#x1ec3;" horiz-adv-x="1000" 
d="M492 -16q-160 0 -255 60t-136 173t-41 272v603q0 209 120 316.5t330 107.5q432 0 432 -424v-109q0 -198 -4 -266h-520v-290q0 -40 5 -78.5t22.5 -63.5t56.5 -25q56 0 70 48.5t14 126.5v144h356v-85q0 -168 -41.5 -281.5t-140 -171t-268.5 -57.5zM416 895h170v202
q0 81 -20 116.5t-60 35.5q-43 0 -66.5 -34t-23.5 -118v-202zM871 1797l-106 124q54 20 87 50t33 80q0 95 -101 95q-47 0 -90 -16v180q88 33 183 33q125 0 195.5 -62.5t70.5 -175.5q0 -127 -78 -199.5t-194 -108.5zM115 1591l221 313h348l221 -313h-305l-90 195l-90 -195
h-305z" />
    <glyph glyph-name="uni1EC3.sc" horiz-adv-x="843" 
d="M78 0v1560h704v-340h-346v-258h332v-331h-332v-288h369v-343h-727zM793 1887l-106 124q54 20 87 50t33 80q0 95 -101 95q-47 0 -90 -16v180q88 33 183 33q125 0 195.5 -62.5t70.5 -175.5q0 -127 -78 -199.5t-194 -108.5zM37 1681l221 313h348l221 -313h-305l-90 195
l-90 -195h-305z" />
    <glyph glyph-name="uni1EC5" unicode="&#x1ec5;" horiz-adv-x="1000" 
d="M492 -16q-160 0 -255 60t-136 173t-41 272v603q0 209 120 316.5t330 107.5q432 0 432 -424v-109q0 -198 -4 -266h-520v-290q0 -40 5 -78.5t22.5 -63.5t56.5 -25q56 0 70 48.5t14 126.5v144h356v-85q0 -168 -41.5 -281.5t-140 -171t-268.5 -57.5zM416 895h170v202
q0 81 -20 116.5t-60 35.5q-43 0 -66.5 -34t-23.5 -118v-202zM675 1969q-60 0 -112.5 23t-102.5 45.5t-103 22.5q-32 0 -60 -15t-52 -53l-148 78q35 86 82.5 148t147.5 62q62 0 114.5 -22.5t101.5 -45.5t102 -23q38 0 62.5 17t49.5 58l166 -54q-24 -62 -53 -117.5
t-74.5 -89.5t-120.5 -34zM65 1591l241 303h408l241 -303h-355l-90 195l-90 -195h-355z" />
    <glyph glyph-name="uni1EC5.sc" horiz-adv-x="843" 
d="M78 0v1560h704v-340h-346v-258h332v-331h-332v-288h369v-343h-727zM597 2059q-60 0 -112.5 23t-102.5 45.5t-103 22.5q-32 0 -60 -15t-52 -53l-148 78q35 86 82.5 148t147.5 62q62 0 114.5 -22.5t101.5 -45.5t102 -23q38 0 62.5 17t49.5 58l166 -54q-24 -62 -53 -117.5
t-74.5 -89.5t-120.5 -34zM-13 1681l241 303h408l241 -303h-355l-90 195l-90 -195h-355z" />
    <glyph glyph-name="uni0205" unicode="&#x205;" horiz-adv-x="1000" 
d="M492 -16q-160 0 -255 60t-136 173t-41 272v603q0 209 120 316.5t330 107.5q432 0 432 -424v-109q0 -198 -4 -266h-520v-290q0 -40 5 -78.5t22.5 -63.5t56.5 -25q56 0 70 48.5t14 126.5v144h356v-85q0 -168 -41.5 -281.5t-140 -171t-268.5 -57.5zM416 895h170v202
q0 81 -20 116.5t-60 35.5q-43 0 -66.5 -34t-23.5 -118v-202zM313 1586l-289 429l234 108l221 -479zM615 1586l-248 429l230 108l184 -479z" />
    <glyph glyph-name="uni0205.sc" horiz-adv-x="843" 
d="M78 0v1560h704v-340h-346v-258h332v-331h-332v-288h369v-343h-727zM294 1696l-289 429l234 108l221 -479zM596 1696l-248 429l230 108l184 -479z" />
    <glyph glyph-name="edieresis" unicode="&#xeb;" horiz-adv-x="1000" 
d="M492 -16q-160 0 -255 60t-136 173t-41 272v603q0 209 120 316.5t330 107.5q432 0 432 -424v-109q0 -198 -4 -266h-520v-290q0 -40 5 -78.5t22.5 -63.5t56.5 -25q56 0 70 48.5t14 126.5v144h356v-85q0 -168 -41.5 -281.5t-140 -171t-268.5 -57.5zM416 895h170v202
q0 81 -20 116.5t-60 35.5q-43 0 -66.5 -34t-23.5 -118v-202zM566 1599v298h358v-298h-358zM82 1599v298h358v-298h-358z" />
    <glyph glyph-name="edieresis.sc" horiz-adv-x="843" 
d="M78 0v1560h704v-340h-346v-258h332v-331h-332v-288h369v-343h-727zM495 1689v298h358v-298h-358zM11 1689v298h358v-298h-358z" />
    <glyph glyph-name="edotaccent" unicode="&#x117;" horiz-adv-x="1000" 
d="M492 -16q-160 0 -255 60t-136 173t-41 272v603q0 209 120 316.5t330 107.5q432 0 432 -424v-109q0 -198 -4 -266h-520v-290q0 -40 5 -78.5t22.5 -63.5t56.5 -25q56 0 70 48.5t14 126.5v144h356v-85q0 -168 -41.5 -281.5t-140 -171t-268.5 -57.5zM416 895h170v202
q0 81 -20 116.5t-60 35.5q-43 0 -66.5 -34t-23.5 -118v-202zM331 1592v298h358v-298h-358z" />
    <glyph glyph-name="edotaccent.sc" horiz-adv-x="843" 
d="M78 0v1560h704v-340h-346v-258h332v-331h-332v-288h369v-343h-727zM253 1682v298h358v-298h-358z" />
    <glyph glyph-name="uni1EB9" unicode="&#x1eb9;" horiz-adv-x="1000" 
d="M492 -16q-160 0 -255 60t-136 173t-41 272v603q0 209 120 316.5t330 107.5q432 0 432 -424v-109q0 -198 -4 -266h-520v-290q0 -40 5 -78.5t22.5 -63.5t56.5 -25q56 0 70 48.5t14 126.5v144h356v-85q0 -168 -41.5 -281.5t-140 -171t-268.5 -57.5zM416 895h170v202
q0 81 -20 116.5t-60 35.5q-43 0 -66.5 -34t-23.5 -118v-202zM316 -417v298h358v-298h-358z" />
    <glyph glyph-name="uni1EB9.sc" horiz-adv-x="843" 
d="M78 0v1560h704v-340h-346v-258h332v-331h-332v-288h369v-343h-727zM263 -417v298h358v-298h-358z" />
    <glyph glyph-name="egrave" unicode="&#xe8;" horiz-adv-x="1000" 
d="M492 -16q-160 0 -255 60t-136 173t-41 272v603q0 209 120 316.5t330 107.5q432 0 432 -424v-109q0 -198 -4 -266h-520v-290q0 -40 5 -78.5t22.5 -63.5t56.5 -25q56 0 70 48.5t14 126.5v144h356v-85q0 -168 -41.5 -281.5t-140 -171t-268.5 -57.5zM416 895h170v202
q0 81 -20 116.5t-60 35.5q-43 0 -66.5 -34t-23.5 -118v-202zM747 1553l-475 94v347l475 -218v-223z" />
    <glyph glyph-name="egrave.sc" horiz-adv-x="843" 
d="M78 0v1560h704v-340h-346v-258h332v-331h-332v-288h369v-343h-727zM669 1627l-475 74v287l475 -168v-193z" />
    <glyph glyph-name="uni1EBB" unicode="&#x1ebb;" horiz-adv-x="1000" 
d="M492 -16q-160 0 -255 60t-136 173t-41 272v603q0 209 120 316.5t330 107.5q432 0 432 -424v-109q0 -198 -4 -266h-520v-290q0 -40 5 -78.5t22.5 -63.5t56.5 -25q56 0 70 48.5t14 126.5v144h356v-85q0 -168 -41.5 -281.5t-140 -171t-268.5 -57.5zM416 895h170v202
q0 81 -20 116.5t-60 35.5q-43 0 -66.5 -34t-23.5 -118v-202zM510 1597l-106 124q54 20 87 50t33 80q0 95 -101 95q-47 0 -90 -16v180q88 33 183 33q125 0 195.5 -62.5t70.5 -175.5q0 -127 -78 -199.5t-194 -108.5z" />
    <glyph glyph-name="uni1EBB.sc" horiz-adv-x="843" 
d="M78 0v1560h704v-340h-346v-258h332v-331h-332v-288h369v-343h-727zM403 1667l-106 124q54 20 87 50t33 80q0 95 -101 95q-47 0 -90 -16v180q88 33 183 33q125 0 195.5 -62.5t70.5 -175.5q0 -127 -78 -199.5t-194 -108.5z" />
    <glyph glyph-name="eight" unicode="8" horiz-adv-x="1012" 
d="M506 -19q-248 0 -354 142t-106 402v117q0 134 32 217t118 127q-81 33 -115 110.5t-34 192.5v46q0 234 117.5 340.5t341.5 106.5q230 0 344 -109.5t114 -351.5q0 -127 -30 -213t-119 -124q95 -49 123 -128.5t28 -213.5v-117q0 -260 -106 -402t-354 -142zM506 1134
q93 0 93 168q0 56 -19.5 106t-73.5 50t-73.5 -50t-19.5 -106q0 -168 93 -168zM506 329q96 0 96 155v161q0 80 -21.5 125t-74.5 45q-55 0 -75 -45t-20 -125v-161q0 -155 95 -155z" />
    <glyph glyph-name="eight.dnom" horiz-adv-x="633" 
d="M317 -10q-146 0 -208.5 83.5t-62.5 236.5v64q0 79 19 127.5t69 74.5q-47 20 -67 65.5t-20 112.5v27q0 138 69 200.5t201 62.5q135 0 202 -64t67 -207q0 -74 -17.5 -125t-70.5 -73q61 -29 75 -90t14 -149v-26q0 -153 -62 -236.5t-208 -83.5zM317 663q54 0 54 99
q0 33 -11 62.5t-43 29.5t-43.5 -29.5t-11.5 -62.5q0 -99 55 -99zM317 195q56 0 56 102v67q0 35 -8 73.5t-48 38.5q-31 0 -42.5 -30.5t-11.5 -83.5v-65q0 -102 54 -102z" />
    <glyph glyph-name="eight.numr" horiz-adv-x="633" 
d="M317 712q-146 0 -208.5 83.5t-62.5 236.5v64q0 79 19 127.5t69 74.5q-47 20 -67 65.5t-20 112.5v27q0 138 69 200.5t201 62.5q135 0 202 -64t67 -207q0 -74 -17.5 -125t-70.5 -73q61 -29 75 -90t14 -149v-26q0 -153 -62 -236.5t-208 -83.5zM317 1385q54 0 54 99
q0 33 -11 62.5t-43 29.5t-43.5 -29.5t-11.5 -62.5q0 -99 55 -99zM317 917q56 0 56 102v67q0 35 -8 73.5t-48 38.5q-31 0 -42.5 -30.5t-11.5 -83.5v-65q0 -102 54 -102z" />
    <glyph glyph-name="uni2088" unicode="&#x2088;" horiz-adv-x="633" 
d="M317 -76q-146 0 -208.5 83.5t-62.5 236.5v64q0 79 19 127.5t69 74.5q-47 20 -67 65.5t-20 112.5v27q0 138 69 200.5t201 62.5q135 0 202 -64t67 -207q0 -74 -17.5 -125t-70.5 -73q61 -29 75 -90t14 -149v-26q0 -153 -62 -236.5t-208 -83.5zM317 597q54 0 54 99
q0 33 -11 62.5t-43 29.5t-43.5 -29.5t-11.5 -62.5q0 -99 55 -99zM317 129q56 0 56 102v67q0 35 -8 73.5t-48 38.5q-31 0 -42.5 -30.5t-11.5 -83.5v-65q0 -102 54 -102z" />
    <glyph glyph-name="uni2078" unicode="&#x2078;" horiz-adv-x="633" 
d="M317 782q-146 0 -208.5 83.5t-62.5 236.5v64q0 79 19 127.5t69 74.5q-47 20 -67 65.5t-20 112.5v27q0 138 69 200.5t201 62.5q135 0 202 -64t67 -207q0 -74 -17.5 -125t-70.5 -73q61 -29 75 -90t14 -149v-26q0 -153 -62 -236.5t-208 -83.5zM317 1455q54 0 54 99
q0 33 -11 62.5t-43 29.5t-43.5 -29.5t-11.5 -62.5q0 -99 55 -99zM317 987q56 0 56 102v67q0 35 -8 73.5t-48 38.5q-31 0 -42.5 -30.5t-11.5 -83.5v-65q0 -102 54 -102z" />
    <glyph glyph-name="uni0207" unicode="&#x207;" horiz-adv-x="1000" 
d="M492 -16q-160 0 -255 60t-136 173t-41 272v603q0 209 120 316.5t330 107.5q432 0 432 -424v-109q0 -198 -4 -266h-520v-290q0 -40 5 -78.5t22.5 -63.5t56.5 -25q56 0 70 48.5t14 126.5v144h356v-85q0 -168 -41.5 -281.5t-140 -171t-268.5 -57.5zM416 895h170v202
q0 81 -20 116.5t-60 35.5q-43 0 -66.5 -34t-23.5 -118v-202zM132 1621q-3 20 -3 41q0 163 98.5 237t273.5 74q180 0 277.5 -75.5t97.5 -242.5q0 -5 -0.5 -14.5t-1.5 -19.5h-236q0 68 -38 101t-97 33q-58 0 -96.5 -33t-38.5 -101h-236z" />
    <glyph glyph-name="uni0207.sc" horiz-adv-x="843" 
d="M78 0v1560h704v-340h-346v-258h332v-331h-332v-288h369v-343h-727zM62 1689q-3 21 -3 42q0 163 98.5 237t273.5 74q180 0 277.5 -75.5t97.5 -242.5q0 -5 -0.5 -14.5t-1.5 -20.5h-236q0 68 -38 101.5t-97 33.5q-58 0 -96.5 -33.5t-38.5 -101.5h-236z" />
    <glyph glyph-name="ellipsis" unicode="&#x2026;" horiz-adv-x="1450" 
d="M55 1v298h358v-298h-358zM546 1v298h358v-298h-358zM1037 1v298h358v-298h-358z" />
    <glyph glyph-name="emacron" unicode="&#x113;" horiz-adv-x="1000" 
d="M492 -16q-160 0 -255 60t-136 173t-41 272v603q0 209 120 316.5t330 107.5q432 0 432 -424v-109q0 -198 -4 -266h-520v-290q0 -40 5 -78.5t22.5 -63.5t56.5 -25q56 0 70 48.5t14 126.5v144h356v-85q0 -168 -41.5 -281.5t-140 -171t-268.5 -57.5zM416 895h170v202
q0 81 -20 116.5t-60 35.5q-43 0 -66.5 -34t-23.5 -118v-202zM185 1619v153h650v-153h-650z" />
    <glyph glyph-name="emacron.sc" horiz-adv-x="843" 
d="M78 0v1560h704v-340h-346v-258h332v-331h-332v-288h369v-343h-727zM106 1728v153h650v-153h-650z" />
    <glyph glyph-name="uni1E17" unicode="&#x1e17;" horiz-adv-x="1000" 
d="M492 -16q-160 0 -255 60t-136 173t-41 272v603q0 209 120 316.5t330 107.5q432 0 432 -424v-109q0 -198 -4 -266h-520v-290q0 -40 5 -78.5t22.5 -63.5t56.5 -25q56 0 70 48.5t14 126.5v144h356v-85q0 -168 -41.5 -281.5t-140 -171t-268.5 -57.5zM416 895h170v202
q0 81 -20 116.5t-60 35.5q-43 0 -66.5 -34t-23.5 -118v-202zM185 1559v153h650v-153h-650zM273 1765v223l475 218v-347z" />
    <glyph glyph-name="uni1E17.sc" horiz-adv-x="843" 
d="M78 0v1560h704v-340h-346v-258h332v-331h-332v-288h369v-343h-727zM194 1855v223l475 218v-347zM106 1649v153h650v-153h-650z" />
    <glyph glyph-name="uni1E15" unicode="&#x1e15;" horiz-adv-x="1000" 
d="M492 -16q-160 0 -255 60t-136 173t-41 272v603q0 209 120 316.5t330 107.5q432 0 432 -424v-109q0 -198 -4 -266h-520v-290q0 -40 5 -78.5t22.5 -63.5t56.5 -25q56 0 70 48.5t14 126.5v144h356v-85q0 -168 -41.5 -281.5t-140 -171t-268.5 -57.5zM416 895h170v202
q0 81 -20 116.5t-60 35.5q-43 0 -66.5 -34t-23.5 -118v-202zM185 1559v153h650v-153h-650zM747 1765l-475 94v347l475 -218v-223z" />
    <glyph glyph-name="uni1E15.sc" horiz-adv-x="843" 
d="M78 0v1560h704v-340h-346v-258h332v-331h-332v-288h369v-343h-727zM671 1855l-475 94v347l475 -218v-223zM109 1649v153h650v-153h-650z" />
    <glyph glyph-name="emdash" unicode="&#x2014;" horiz-adv-x="1153" 
d="M60 509v232h1032v-232h-1032z" />
    <glyph glyph-name="emdash.case" horiz-adv-x="1153" 
d="M60 789v232h1032v-232h-1032z" />
    <glyph glyph-name="emptyset" unicode="&#x2205;" horiz-adv-x="1386" 
d="M691 205q-118 0 -222.5 36.5t-187.5 100.5l-128 -128l-86 86l126 126q-75 86 -117 197.5t-42 238.5q0 140 49.5 259.5t139 209t209 139t259.5 49.5q128 0 239.5 -42t196.5 -117l139 139l86 -86l-141 -141q65 -83 101 -187.5t36 -222.5q0 -140 -49.5 -259.5t-139 -209
t-209 -139t-259.5 -49.5zM298 531l727 727q-64 62 -149.5 97t-184.5 35q-144 0 -256.5 -71.5t-177 -191t-64.5 -265.5q0 -94 28 -178.5t77 -152.5zM691 334q145 0 257 71.5t176.5 191.5t64.5 265q0 168 -86 302l-721 -721q62 -51 140.5 -80t168.5 -29z" />
    <glyph glyph-name="endash" unicode="&#x2013;" horiz-adv-x="637" 
d="M60 509v232h516v-232h-516z" />
    <glyph glyph-name="endash.case" horiz-adv-x="637" 
d="M60 789v232h516v-232h-516z" />
    <glyph glyph-name="eng" unicode="&#x14b;" horiz-adv-x="1021" 
d="M490 -458v262q53 0 81.5 36t28.5 119v1161q0 44 -18 81.5t-62 37.5q-41 0 -60.5 -28.5t-24.5 -71t-5 -84.5v-1055h-358v1500h358v-191q20 86 74.5 146.5t151.5 60.5q156 0 226.5 -96t70.5 -263v-1157q0 -229 -125.5 -343.5t-337.5 -114.5z" />
    <glyph glyph-name="eng.sc" horiz-adv-x="1020" 
d="M467 -488v302q68 0 99 27t31 88v75l-195 841v-845h-324v1560h362l182 -846v846h320v-1618q0 -215 -127 -322.5t-348 -107.5z" />
    <glyph glyph-name="eogonek" unicode="&#x119;" horiz-adv-x="1000" 
d="M492 -16q-160 0 -255 60t-136 173t-41 272v603q0 209 120 316.5t330 107.5q432 0 432 -424v-109q0 -198 -4 -266h-520v-290q0 -40 5 -78.5t22.5 -63.5t56.5 -25q56 0 70 48.5t14 126.5v144h356v-85q0 -168 -41.5 -281.5t-140 -171t-268.5 -57.5zM416 895h170v202
q0 81 -20 116.5t-60 35.5q-43 0 -66.5 -34t-23.5 -118v-202zM503 -631q-95 0 -174 36t-126.5 103.5t-47.5 161.5q0 182 264 330h211q-68 -65 -114 -130.5t-46 -148.5q0 -112 115 -112q49 0 116 23v-223q-95 -40 -198 -40z" />
    <glyph glyph-name="eogonek.sc" horiz-adv-x="843" 
d="M78 0v1560h704v-340h-346v-258h332v-331h-332v-288h369v-343h-727zM503 -621q-95 0 -174 36t-126.5 103.5t-47.5 161.5q0 182 264 330h211q-68 -65 -114 -130.5t-46 -148.5q0 -112 115 -112q49 0 116 23v-223q-95 -40 -198 -40z" />
    <glyph glyph-name="uni025B" unicode="&#x25b;" horiz-adv-x="996" 
d="M522 -20q-167 0 -271 61.5t-152 169.5t-48 249q0 101 25 182.5t106 136.5q-72 40 -99.5 115t-27.5 174q0 221 112 334.5t332 113.5q226 0 336.5 -110.5t110.5 -337.5v-61h-356v77q0 59 -12.5 108t-75.5 49q-96 0 -96 -152q0 -94 48 -134t139 -40v-276q-6 1 -14.5 1.5
t-19.5 0.5q-85 0 -117.5 -57t-32.5 -154q0 -99 19.5 -136.5t71.5 -37.5q65 0 83 52t18 140v101h356v-75q0 -248 -104.5 -371t-330.5 -123z" />
    <glyph glyph-name="equal" unicode="=" horiz-adv-x="637" 
d="M61 892v224h514v-224h-514zM61 509v232h514v-232h-514z" />
    <glyph glyph-name="uni0283" unicode="&#x283;" horiz-adv-x="574" 
d="M179 -260q-49 0 -83 4t-69 11v235q13 -5 31 -5q47 0 47 60v1468q0 121 73 191.5t208 70.5q49 0 83.5 -4t68.5 -11v-235q-13 5 -31 5q-47 0 -47 -60v-1468q0 -121 -73 -191.5t-208 -70.5z" />
    <glyph glyph-name="estimated" unicode="&#x212e;" horiz-adv-x="1000" 
d="M492 -16q-213 0 -322.5 128t-109.5 377v603q0 424 450 424q432 0 432 -424v-354h-564v-501q0 -167 126 -167q152 0 152 175v334h286v-85q0 -268 -107 -389t-343 -121zM376 835h280v442q0 162 -150 162q-130 0 -130 -162v-442z" />
    <glyph glyph-name="uni0247" unicode="&#x247;" horiz-adv-x="1000" 
d="M178 -186l60 230q-96 59 -137 172t-41 273v603q0 209 120 316.5t330 107.5q59 0 109 -8l64 252h140l-73 -291q192 -93 192 -377v-109q0 -198 -4 -266h-520v-290q0 -40 5 -78.5t22.5 -63.5t56.5 -25q56 0 70 48.5t14 126.5v144h356v-85q0 -168 -41.5 -281.5t-140 -171
t-268.5 -57.5q-69 0 -127 12l-47 -182h-140zM416 895h170v202q0 81 -20 116.5t-60 35.5q-43 0 -66.5 -34t-23.5 -118v-202z" />
    <glyph glyph-name="eth" unicode="&#xf0;" horiz-adv-x="1031" 
d="M508 -16q-172 0 -272.5 71.5t-143.5 207t-43 326.5q0 260 98.5 386.5t316.5 126.5q69 0 137 -25q-36 90 -100 182l-177 -115l-83 129l153 99q-165 143 -310 174l94 228q249 -23 481 -229l171 111l83 -129l-145 -95q107 -147 164.5 -297.5t57.5 -335.5v-261
q0 -188 -44 -311t-149 -183t-289 -60zM528 279q95 0 95 141v281q0 135 -101 135q-87 0 -87 -156v-198q0 -88 13 -145.5t80 -57.5z" />
    <glyph glyph-name="eth.sc" horiz-adv-x="1010" 
d="M78 0v694h-76v232h76v634h485q190 0 285.5 -105.5t95.5 -308.5v-624q0 -250 -87 -386t-306 -136h-473zM432 311h61q97 0 97 94v708q0 88 -23.5 113.5t-95.5 25.5h-39v-326h84v-232h-84v-383z" />
    <glyph glyph-name="uni1EBD" unicode="&#x1ebd;" horiz-adv-x="1000" 
d="M492 -16q-160 0 -255 60t-136 173t-41 272v603q0 209 120 316.5t330 107.5q432 0 432 -424v-109q0 -198 -4 -266h-520v-290q0 -40 5 -78.5t22.5 -63.5t56.5 -25q56 0 70 48.5t14 126.5v144h356v-85q0 -168 -41.5 -281.5t-140 -171t-268.5 -57.5zM416 895h170v202
q0 81 -20 116.5t-60 35.5q-43 0 -66.5 -34t-23.5 -118v-202zM675 1611q-77 0 -136 23t-107.5 45.5t-94.5 22.5q-26 0 -49 -15t-43 -53l-148 78q25 61 54.5 111.5t75.5 81t117 30.5q74 0 131 -21t103.5 -42t85.5 -21q27 0 50 17t43 58l166 -54q-24 -67 -53 -127t-74.5 -97
t-120.5 -37z" />
    <glyph glyph-name="uni1EBD.sc" horiz-adv-x="843" 
d="M78 0v1560h704v-340h-346v-258h332v-331h-332v-288h369v-343h-727zM597 1671q-74 0 -135.5 23t-111.5 45.5t-91 22.5q-26 0 -49 -15t-43 -53l-148 78q25 55 54.5 101t75.5 74t117 28t129.5 -21t105.5 -42t85 -21q27 0 50 17t43 58l166 -54q-24 -62 -53 -117.5
t-74.5 -89.5t-120.5 -34z" />
    <glyph glyph-name="uni1E1B" unicode="&#x1e1b;" horiz-adv-x="1000" 
d="M492 -16q-160 0 -255 60t-136 173t-41 272v603q0 209 120 316.5t330 107.5q432 0 432 -424v-109q0 -198 -4 -266h-520v-290q0 -40 5 -78.5t22.5 -63.5t56.5 -25q56 0 70 48.5t14 126.5v144h356v-85q0 -168 -41.5 -281.5t-140 -171t-268.5 -57.5zM416 895h170v202
q0 81 -20 116.5t-60 35.5q-43 0 -66.5 -34t-23.5 -118v-202zM660 -435q-74 0 -135.5 23t-111.5 45.5t-91 22.5q-26 0 -49 -15t-43 -53l-148 78q25 61 54.5 111.5t75.5 81t117 30.5t128.5 -21t105 -42t86.5 -21q27 0 50 17t43 58l166 -54q-24 -67 -53 -127t-74.5 -97
t-120.5 -37z" />
    <glyph glyph-name="uni01DD" unicode="&#x1dd;" horiz-adv-x="1000" 
d="M490 -16q-432 0 -432 424v109q0 198 4 266h520v290q0 41 -4.5 79t-22.5 63t-57 25q-55 0 -69.5 -48.5t-14.5 -126.5v-144h-356v85q0 169 41.5 282t140 170.5t268.5 57.5q161 0 255.5 -60t135.5 -172.5t41 -272.5v-603q0 -209 -120 -316.5t-330 -107.5zM494 251
q43 0 66.5 34t23.5 118v202h-170v-202q0 -81 20 -116.5t60 -35.5z" />
    <glyph glyph-name="Euro" unicode="&#x20ac;" horiz-adv-x="1075" 
d="M606 -16q-223 0 -344.5 136.5t-121.5 363.5v87h-100v182h100v51h-100v184h100v90q0 241 115.5 369.5t350.5 128.5q224 0 330 -128t106 -356h-349v28q0 60 -13.5 105.5t-73.5 45.5t-73.5 -45.5t-13.5 -105.5v-132h315v-184h-315v-51h315v-182h-315v-122q0 -46 23.5 -81.5
t63.5 -35.5q41 0 64 35.5t23 81.5v25h349q0 -143 -50 -253.5t-147 -173.5t-239 -63z" />
    <glyph glyph-name="exclam" unicode="!" horiz-adv-x="469" 
d="M125 479l-70 1281h358l-70 -1281h-218zM55 1v298h358v-298h-358z" />
    <glyph glyph-name="exclam.sc" horiz-adv-x="469" 
d="M125 479l-70 1081h358l-70 -1081h-218zM55 1v298h358v-298h-358z" />
    <glyph glyph-name="exclamdown" unicode="&#xa1;" horiz-adv-x="464" 
d="M55 1353v298h358v-298h-358zM55 -108l70 1281h218l70 -1281h-358z" />
    <glyph glyph-name="exclamdown.sc" horiz-adv-x="469" 
d="M55 1560h358v-298h-358v298zM125 1082h218l70 -1081h-358z" />
    <glyph glyph-name="uni0292" unicode="&#x292;" horiz-adv-x="994" 
d="M482 -260q-231 0 -337 121.5t-106 371.5v119h356v-119q0 -116 20.5 -166.5t81.5 -50.5q66 0 77 78t11 232q0 137 -41.5 197t-116.5 60h-116v253l271 391h-501v273h860v-310l-253 -366q134 -54 194.5 -185.5t60.5 -334.5q0 -282 -111 -423t-350 -141z" />
    <glyph glyph-name="uni01EF" unicode="&#x1ef;" horiz-adv-x="994" 
d="M482 -260q-231 0 -337 121.5t-106 371.5v119h356v-119q0 -116 20.5 -166.5t81.5 -50.5q66 0 77 78t11 232q0 137 -41.5 197t-116.5 60h-116v253l271 391h-501v273h860v-310l-253 -366q134 -54 194.5 -185.5t60.5 -334.5q0 -282 -111 -423t-350 -141zM317 1591l-241 403
h359l86 -285l86 285h359l-241 -403h-408z" />
    <glyph glyph-name="uni01B9" unicode="&#x1b9;" horiz-adv-x="994" 
d="M512 -260q-238 0 -349.5 141t-111.5 423q0 203 60.5 334.5t194.5 185.5l-253 366v310h860v-273h-501l271 -391v-253h-116q-75 0 -116.5 -60t-41.5 -197q0 -154 11 -232t77 -78q62 0 82 50.5t20 166.5v119h356v-119q0 -250 -106 -371.5t-337 -121.5z" />
    <glyph glyph-name="f" unicode="f" horiz-adv-x="574" 
d="M105 0v1161h-65v273h65v102q0 242 242 242q114 0 184 -29v-221q-25 5 -33 5q-31 0 -38 -22.5t-7 -57.5v-19h78v-277h-71v-1157h-355z" />
    <glyph glyph-name="f.sc" horiz-adv-x="843" 
d="M78 0v1560h704v-340h-346v-283h332v-331h-332v-606h-358z" />
    <glyph glyph-name="f_j" horiz-adv-x="1112" 
d="M105 0v1161h-65v273h65v102q0 242 242 242q114 0 184 -29v-221q-25 5 -33 5q-31 0 -38 -22.5t-7 -57.5v-19h78v-277h-71v-1157h-355zM684 1592v298h358v-298h-358zM760 -260q-114 0 -152 26v240q18 -5 33 -5q29 0 36 20t7 51v1428h358v-1418q0 -160 -63.5 -251
t-218.5 -91z" />
    </font>
</defs>
</svg>
